找回密码

蓝光电影网

查看: 1163|回复: 3

[剧情] 一一 Yi.Yi.2000.1080p.BluRay.x264-CiNEFiLE 12.02GB

[复制链接]
蓝光币
886
发表于 2020-2-2 13:54:13 | 显示全部楼层 |阅读模式
逐一 Yi.Yi.2000.1080p.BluRay.x264-CiNEFiLE 12.02GB-1.jpg
◎译  名 Yiyi
◎片  名 逐一
◎年  代 2000
◎国  家 台湾/日本
◎类  别 剧情/恋爱/家庭
◎语  言 汉语普通话/闽南语/福建话/英语/日语
◎上映日期 2000-05-14(戛纳电影节)/2000-12-16(日本)
◎IMDb评分8.1/10 from 11,436 users
◎IMDb链接http://www.imdb.com/title/tt0244316/
◎豆瓣评分 8.9/10 from 110,487 users
◎豆瓣链接 http://movie.douban.com/subject/1292434/
◎片  长 173分钟
◎导  演 杨德昌
◎主  演 吴念真
      李凯莉 Kelly Lee
      金燕玲 Elaine Jin
      张洋洋
      萧淑慎
      尾形一成
◎简  介
  NJ(吴念真)是个很有原则的买卖人,同妻子敏敏(金燕玲)、女儿婷婷(李凯莉)、儿子洋洋(张杨洋)以及外婆住在台北某所普通公寓里。小舅子的一场麻烦婚礼事后,由于外婆忽然中风昏迷,他迎来加倍紊乱的日子。
  敏敏公司、家里两头跑,经常感受自己要被耗空;婷婷一向为外婆的中风忸捏,恋爱谈到中途发现自己不外是替换品;NJ更是麻烦重重,公司面临破产,他又不愿放下他人眼里一文不值的自负。一家人里,似乎只要洋洋没有懊恼,他恬静地用摄影机拍着各类人的后背,帮他们长出另一双眼睛,可是,洋洋简简单单的一句话,道出更深的悲凉。
◎获奖情况
  第53届戛纳电影节 (2000)
  配角逐单元 金棕榈奖(提名) 杨德昌
  配角逐单元 最好导演 杨德昌
  第21届香港电影金像奖 (2002)
  最好亚洲电影(提名)

  1. Video
  2. ID             : 1
  3. Format           : AVC
  4. Format/Info          : Advanced Video Codec
  5. Format profile         : [email protected]
  6. Format settings, CABAC       : Yes
  7. Format settings, ReFrames      : 4 frames
  8. Muxing mode          : Header stripping
  9. Codec ID           : V_MPEG4/ISO/AVC
  10. Duration           : 2h 53mn
  11. Bit rate           : 8 408 Kbps
  12. Width            : 1 920 pixels
  13. Height           : 1 040 pixels
  14. Display aspect ratio       : 1.85:1
  15. Frame rate mode        : Constant
  16. Frame rate           : 23.976 fps
  17. Color space          : YUV
  18. Chroma subsampling       : 4:2:0
  19. Bit depth          : 8 bits
  20. Scan type          : Progressive
  21. Bits/(Pixel*Frame)       : 0.176
  22. Stream size          : 9.95 GiB (83%)
  23. Writing library        : x264 core 114 r1913 5fd3dce
  24. Encoding settings        : cabac=1 / ref=4 / deblock=1:0:0 / analyse=0x3:0x133 / me=umh / subme=7 / psy=1 / psy_rd=1.00:0.00 / mixed_ref=1 / me_range=16 / chroma_me=1 / trellis=1 / 8x8dct=1 / cqm=0 / deadzone=21,11 / fast_pskip=0 / chroma_qp_offset=-2 / threads=6 / sliced_threads=0 / nr=0 / decimate=1 / interlaced=0 / constrained_intra=0 / bframes=3 / b_pyramid=2 / b_adapt=2 / b_bias=0 / direct=3 / weightb=1 / open_gop=0 / weightp=2 / keyint=250 / keyint_min=23 / scenecut=40 / intra_refresh=0 / rc_lookahead=50 / rc=2pass / mbtree=1 / bitrate=8408 / ratetol=1.0 / qcomp=0.60 / qpmin=0 / qpmax=69 / qpstep=4 / cplxblur=20.0 / qblur=0.5 / ip_ratio=1.40 / aq=1:1.00
  25. Language           : English
  26. Default            : Yes
  27. Forced           : No
  28. Audio
  29. ID             : 2
  30. Format           : DTS
  31. Format/Info          : Digital Theater Systems
  32. Mode             : 16
  33. Format settings, Endianness    : Big
  34. Muxing mode          : Header stripping
  35. Codec ID           : A_DTS
  36. Duration           : 2h 53mn
  37. Bit rate mode          : Constant
  38. Bit rate           : 1 509 Kbps
  39. Channel(s)           : 2 channels
  40. Channel positions        : Front: L R
  41. Sampling rate          : 48.0 KHz
  42. Bit depth          : 24 bits
  43. Compression mode         : Lossy
  44. Stream size          : 1.83 GiB (15%)
  45. Title            : Mandarin
  46. Language           : Chinese
  47. Default            : Yes
  48. Forced           : No
  49. Text
  50. ID             : 3
  51. Format           : UTF-8
  52. Codec ID           : S_TEXT/UTF8
  53. Codec ID/Info          : UTF-8 Plain Text
  54. Title            : English
  55. Language           : English
  56. Default            : Yes
  57. Forced           : No
复制代码


逐一 Yi.Yi.2000.1080p.BluRay.x264-CiNEFiLE 12.02GB-2.jpg 逐一 Yi.Yi.2000.1080p.BluRay.x264-CiNEFiLE 12.02GB-3.jpg
逐一 Yi.Yi.2000.1080p.BluRay.x264-CiNEFiLE 12.02GB-4.jpg 逐一 Yi.Yi.2000.1080p.BluRay.x264-CiNEFiLE 12.02GB-5.jpg
逐一 Yi.Yi.2000.1080p.BluRay.x264-CiNEFiLE 12.02GB-6.jpg 逐一 Yi.Yi.2000.1080p.BluRay.x264-CiNEFiLE 12.02GB-7.jpg                           





回复

使用道具 举报

蓝光币
862
发表于 2020-2-2 16:20:22 | 显示全部楼层
谢谢楼主无私分享。
回复 支持 反对

使用道具 举报

蓝光币
19
发表于 2020-5-14 10:54:31 | 显示全部楼层

楼主太厉害了!楼主,电影应该很好看我觉得蓝光电影网真是个好地方!
回复 支持 反对

使用道具 举报

蓝光币
1
发表于 2022-6-30 13:44:40 | 显示全部楼层
感谢楼主分享
回复 支持 反对

使用道具 举报

懒得打字嘛,点击右侧快捷回复 【右侧内容,后台自定义】
您需要登录后才可以回帖 登录 | 立即加入

本版积分规则

Archiver|小黑屋| 蓝光电影网 |网站地图

Copyright © 2021 Comsenz Inc. Powered by 蓝光电影网

蓝光电影网

本站内容由用户自主分享和转载自互联网,转载目的在于传递更多信息,并不代表本网赞同其观点和对其真实性负责。

如有侵权、违反国家法律政策行为,请联系我们,我们会第一时间及时清除和处理!

举报反馈邮箱:[email protected]

快速回复 返回顶部 返回列表