找回密码

蓝光电影网

查看: 418|回复: 1

[喜剧] 第三代 The.Third.Generation.1979.1080p.BluRay.x264-USURY 10.93GB

[复制链接]
蓝光币
886
发表于 2020-2-2 17:29:29 | 显示全部楼层 |阅读模式
第三代 The.Third.Generation.1979.1080p.BluRay.x264-USURY 10.93GB-1.png

译  名 第三代 / The Third Generation
片  名 Die dritte Generation
年  代 1979
产  地 西德
类  别 笑剧 / 犯罪
语  言 德语 / 英语 / 法语
上映日期 1979-05-13(戛纳电影节) / 1979-09-14(西德)
IMDb评分  6.9/10 from 1795 users
IMDb链接  https://www.imdb.com/title/tt0079083
豆瓣评分 7.4/10 from 220 users
豆瓣链接 https://movie.douban.com/subject/1437553/
片  长 105分钟
导  演 Rainer Werner Fassbinder
编  剧 Rainer Werner Fassbinder
主  演 哈里·贝尔 Harry Baer
       哈克·波姆 Hark Bohm
       玛吉特·卡斯滕森 Margit Carstensen
       埃迪·康斯坦丁 Eddie Constantine
       Jürgen Draeger
       Raúl Gimenez
       Claus Holm
       君特·考夫曼 Günther Kaufmann
       乌多·基尔 Udo Kier
       比尔·奥吉埃 Bulle Ogier
       Lilo Pempeit
       汉娜·许古拉 Hanna Schygulla
       福尔克·施彭勒 Volker Spengler
       Y Sa Lo
       Vitus Zeplichal


标  签 德国 | 法斯宾德 | RainerWernerFassbinder | 德国电影 | 1970s | Rainer_Werner_Fassbinder | 1979 | 赖纳·维尔纳·法斯宾德

简  介  

  影片讲一个自称可骇份子的团伙,是由社会中上层人士组成的,他们的反社会行为替政府的弹压供给了根据。在这部影片中,暴力不但作为一种抵挡社会的兵器是无效力的,而且它本色上已为社会所异化。正像影片中一位警官所说:“我比来做了个梦……梦见本钱家捏造出可骇主义是为了迫使政府更好地庇护他们。”影片的内容非常荒诞、脚色的性情带有神经质而且颓丧。
  1. Video
  2. ID                                       : 1
  3. Format                                   : AVC
  4. Format/Info                              : Advanced Video Codec
  5. Format profile                           : [email protected]
  6. Format settings                          : CABAC / 4 Ref Frames
  7. Format settings, CABAC                   : Yes
  8. Format settings, Reference frames        : 4 frames
  9. Codec ID                                 : V_MPEG4/ISO/AVC
  10. Duration                                 : 1 h 49 min
  11. Bit rate                                 : 13.6 Mb/s
  12. Width                                    : 1 488 pixels
  13. Height                                   : 1 080 pixels
  14. Display aspect ratio                     : 1.378
  15. Frame rate mode                          : Constant
  16. Frame rate                               : 24.000 FPS
  17. Color space                              : YUV
  18. Chroma subsampling                       : 4:2:0
  19. Bit depth                                : 8 bits
  20. Scan type                                : Progressive
  21. Bits/(Pixel*Frame)                       : 0.353
  22. Stream size                              : 10.4 GiB (95%)
  23. Writing library                          : x264 core 157 r2969 d4099dd
  24. Encoding settings                        : cabac=1 / ref=4 / deblock=1:-3:-3 / analyse=0x3:0x133 / me=umh / subme=9 / psy=1 / psy_rd=1.00:0.00 / mixed_ref=1 / me_range=16 / chroma_me=1 / trellis=2 / 8x8dct=1 / cqm=0 / deadzone=21,11 / fast_pskip=0 / chroma_qp_offset=-2 / threads=18 / lookahead_threads=1 / sliced_threads=0 / nr=0 / decimate=1 / interlaced=0 / bluray_compat=0 / constrained_intra=0 / bframes=3 / b_pyramid=2 / b_adapt=1 / b_bias=0 / direct=3 / weightb=1 / open_gop=0 / weightp=2 / keyint=240 / keyint_min=24 / scenecut=40 / intra_refresh=0 / rc_lookahead=50 / rc=2pass / mbtree=1 / bitrate=13628 / ratetol=1.0 / qcomp=0.60 / qpmin=0 / qpmax=69 / qpstep=4 / cplxblur=20.0 / qblur=0.5 / ip_ratio=1.40 / aq=1:1.00
  25. Language                                 : English
  26. Default                                  : Yes
  27. Forced                                   : No

  28. Audio
  29. ID                                       : 2
  30. Format                                   : FLAC
  31. Format/Info                              : Free Lossless Audio Codec
  32. Codec ID                                 : A_FLAC
  33. Duration                                 : 1 h 49 min
  34. Bit rate mode                            : Variable
  35. Bit rate                                 : 705 kb/s
  36. Channel(s)                               : 2 channels
  37. Channel layout                           : L R
  38. Sampling rate                            : 48.0 kHz
  39. Frame rate                               : 11.719 FPS (4096 SPF)
  40. Bit depth                                : 24 bits
  41. Compression mode                         : Lossless
  42. Stream size                              : 551 MiB (5%)
  43. Writing library                          : libFLAC 1.2.1 (UTC 2007-09-17)
  44. Language                                 : German
  45. Default                                  : Yes
  46. Forced                                   : No

  47. Text
  48. ID                                       : 3
  49. Format                                   : UTF-8
  50. Codec ID                                 : S_TEXT/UTF8
  51. Codec ID/Info                            : UTF-8 Plain Text
  52. Duration                                 : 1 h 48 min
  53. Bit rate                                 : 66 b/s
  54. Count of elements                        : 1233
  55. Stream size                              : 53.0 KiB (0%)
  56. Title                                    : English
  57. Language                                 : English
  58. Default                                  : Yes
  59. Forced                                   : Yes

  60. Menu
  61. 00:00:00.000                             : en:00:00:00.000
  62. 00:04:22.708                             : en:00:04:22.708
  63. 00:17:48.458                             : en:00:17:48.458
  64. 00:25:48.250                             : en:00:25:48.250
  65. 00:34:16.875                             : en:00:34:16.875
  66. 00:45:57.292                             : en:00:45:57.292
  67. 00:53:10.042                             : en:00:53:10.042
  68. 00:57:32.167                             : en:00:57:32.167
  69. 01:05:57.458                             : en:01:05:57.458
  70. 01:15:06.167                             : en:01:15:06.167
  71. 01:24:13.542                             : en:01:24:13.542
  72. 01:35:31.125                             : en:01:35:31.125
复制代码

第三代 The.Third.Generation.1979.1080p.BluRay.x264-USURY 10.93GB-2.png






回复

使用道具 举报

懒得打字嘛,点击右侧快捷回复 【右侧内容,后台自定义】
您需要登录后才可以回帖 登录 | 立即加入

本版积分规则

Archiver|小黑屋| 蓝光电影网 |网站地图

Copyright © 2021 Comsenz Inc. Powered by 蓝光电影网

蓝光电影网

本站内容由用户自主分享和转载自互联网,转载目的在于传递更多信息,并不代表本网赞同其观点和对其真实性负责。

如有侵权、违反国家法律政策行为,请联系我们,我们会第一时间及时清除和处理!

举报反馈邮箱:[email protected]

快速回复 返回顶部 返回列表