找回密码

蓝光电影网

查看: 515|回复: 1

[剧情] 龙先生 Mr.Long.2017.1080p.BluRay.x264-USURY 7.94GB

[复制链接]
蓝光币
886
发表于 2020-2-2 17:31:23 | 显示全部楼层 |阅读模式
龙师长 Mr.Long.2017.1080p.BluRay.x264-USURY 7.94GB-1.png

译  名 龙师长 / Mr. Long
片  名 ミスター?ロン
年  代 2017
产  地 日本 / 中国香港 / 中国台湾
类  别 剧情
语  言 汉语普通话 / 日语 / 闽南语
上映日期 2017-02-13(柏林电影节) / 2017-12-16(日本)
IMDb评分  7.1/10 from 837 users
IMDb链接  https://www.imdb.com/title/tt6509862
豆瓣评分 6.8/10 from 3050 users
豆瓣链接 https://movie.douban.com/subject/26952576/
片  长 129分钟
导  演 萨布 SABU
编  剧 萨布 SABU
主  演 张震 Chen Chang
       青柳翔 Sho Aoyagi
       姚以缇 Eleven Yao
       白润音 Run-yin Bai
       有福正志 Masashi Arifuku
       诹访太朗 Tar? Suwa
       大草理乙子 Ritsuko Ohkusa
       歌川椎子 Shiiko Utagawa
       福地佑介 Yusuke Fukuchi
       千叶哲也 Tetsuya Chiba


标  签 日本 | 台湾 | 剧情 | 犯罪 | 張师长 | 温情 | 2017 | 柏林电影节

简  介  

  由张震表演日本导演萨布(Sabu)的新片《龙师长》(Mr.Long)入选柏林影展,并将角逐柏林影帝。

获奖情况  

  第67届柏林国际电影节(2017)
  金熊奖 最好影片(提名) 萨布
  1. Video
  2. ID                                       : 1
  3. Format                                   : AVC
  4. Format/Info                              : Advanced Video Codec
  5. Format profile                           : [email protected]
  6. Format settings                          : CABAC / 5 Ref Frames
  7. Format settings, CABAC                   : Yes
  8. Format settings, Reference frames        : 5 frames
  9. Codec ID                                 : V_MPEG4/ISO/AVC
  10. Duration                                 : 2 h 9 min
  11. Bit rate                                 : 8 042 kb/s
  12. Width                                    : 1 920 pixels
  13. Height                                   : 808 pixels
  14. Display aspect ratio                     : 2.40:1
  15. Frame rate mode                          : Constant
  16. Frame rate                               : 24.000 FPS
  17. Color space                              : YUV
  18. Chroma subsampling                       : 4:2:0
  19. Bit depth                                : 8 bits
  20. Scan type                                : Progressive
  21. Bits/(Pixel*Frame)                       : 0.216
  22. Stream size                              : 7.25 GiB (91%)
  23. Writing library                          : x264 core 157 r2969 d4099dd
  24. Encoding settings                        : cabac=1 / ref=5 / deblock=1:-3:-3 / analyse=0x3:0x133 / me=umh / subme=9 / psy=1 / psy_rd=1.00:0.00 / mixed_ref=1 / me_range=16 / chroma_me=1 / trellis=2 / 8x8dct=1 / cqm=0 / deadzone=21,11 / fast_pskip=0 / chroma_qp_offset=-2 / threads=18 / lookahead_threads=1 / sliced_threads=0 / nr=0 / decimate=1 / interlaced=0 / bluray_compat=0 / constrained_intra=0 / bframes=3 / b_pyramid=2 / b_adapt=1 / b_bias=0 / direct=3 / weightb=1 / open_gop=0 / weightp=2 / keyint=240 / keyint_min=24 / scenecut=40 / intra_refresh=0 / rc_lookahead=50 / rc=2pass / mbtree=1 / bitrate=8042 / ratetol=1.0 / qcomp=0.60 / qpmin=0 / qpmax=69 / qpstep=4 / cplxblur=20.0 / qblur=0.5 / ip_ratio=1.40 / aq=1:1.00
  25. Language                                 : English
  26. Default                                  : Yes
  27. Forced                                   : No

  28. Audio
  29. ID                                       : 2
  30. Format                                   : DTS
  31. Format/Info                              : Digital Theater Systems
  32. Codec ID                                 : A_DTS
  33. Duration                                 : 2 h 9 min
  34. Bit rate mode                            : Constant
  35. Bit rate                                 : 768 kb/s
  36. Channel(s)                               : 6 channels
  37. Channel layout                           : C L R Ls Rs LFE
  38. Sampling rate                            : 48.0 kHz
  39. Frame rate                               : 93.750 FPS (512 SPF)
  40. Bit depth                                : 24 bits
  41. Compression mode                         : Lossy
  42. Stream size                              : 709 MiB (9%)
  43. Language                                 : Japanese
  44. Default                                  : Yes
  45. Forced                                   : No

  46. Text #1
  47. ID                                       : 3
  48. Format                                   : UTF-8
  49. Codec ID                                 : S_TEXT/UTF8
  50. Codec ID/Info                            : UTF-8 Plain Text
  51. Duration                                 : 2 h 0 min
  52. Bit rate                                 : 12 b/s
  53. Count of elements                        : 518
  54. Stream size                              : 11.0 KiB (0%)
  55. Title                                    : English
  56. Language                                 : English
  57. Default                                  : Yes
  58. Forced                                   : Yes

  59. Text #2
  60. ID                                       : 4
  61. Format                                   : UTF-8
  62. Codec ID                                 : S_TEXT/UTF8
  63. Codec ID/Info                            : UTF-8 Plain Text
  64. Duration                                 : 2 h 0 min
  65. Bit rate                                 : 13 b/s
  66. Count of elements                        : 518
  67. Stream size                              : 11.9 KiB (0%)
  68. Title                                    : German
  69. Language                                 : German
  70. Default                                  : No
  71. Forced                                   : No

  72. Menu
  73. 00:00:00.000                             : en:00:00:00.000
  74. 00:12:48.958                             : en:00:12:48.958
  75. 00:20:17.000                             : en:00:20:17.000
  76. 00:36:30.458                             : en:00:36:30.458
  77. 00:51:53.542                             : en:00:51:53.542
  78. 01:11:44.875                             : en:01:11:44.875
  79. 01:25:30.042                             : en:01:25:30.042
  80. 01:29:47.917                             : en:01:29:47.917
  81. 01:39:34.917                             : en:01:39:34.917
  82. 01:58:17.667                             : en:01:58:17.667
  83. 02:04:03.167                             : en:02:04:03.167
复制代码

龙师长 Mr.Long.2017.1080p.BluRay.x264-USURY 7.94GB-2.png






回复

使用道具 举报

蓝光币
856
发表于 2020-2-3 10:52:18 | 显示全部楼层
谢谢楼主无私分享。
回复 支持 反对

使用道具 举报

懒得打字嘛,点击右侧快捷回复 【右侧内容,后台自定义】
您需要登录后才可以回帖 登录 | 立即加入

本版积分规则

Archiver|小黑屋| 蓝光电影网 |网站地图

Copyright © 2021 Comsenz Inc. Powered by 蓝光电影网

蓝光电影网

本站内容由用户自主分享和转载自互联网,转载目的在于传递更多信息,并不代表本网赞同其观点和对其真实性负责。

如有侵权、违反国家法律政策行为,请联系我们,我们会第一时间及时清除和处理!

举报反馈邮箱:[email protected]

快速回复 返回顶部 返回列表