找回密码

蓝光电影网

查看: 305|回复: 0

[纪录] 洞穴里的医院 The.Cave.2020.720p.WEBRip.x264-CAFFEiNE 1.53GB

[复制链接]
蓝光币
886
发表于 2020-2-2 18:33:47 | 显示全部楼层 |阅读模式
洞窟里的医院 The.Cave.2020.720p.WEBRip.x264-CAFFEiNE 1.53GB-1.png

译  名 洞窟里的医院
片  名 The Cave
年  代 2019
产  地 叙利亚 / 丹麦 / 德国 / 卡塔尔 / 美国
类  别 记载片
语  言 阿拉伯语 / 英语
上映日期 2019-09-05(多伦多国际电影节)
IMDb评分  7.8/10 from 490 users
IMDb链接  https://www.imdb.com/title/tt7178226
豆瓣评分 0/10 from 0 users
豆瓣链接 https://movie.douban.com/subject/34796192/
片  长 95分钟
导  演 菲拉斯·法耶德 Feras Fayyad
编  剧 菲拉斯·法耶德 Feras Fayyad / Alisar Hasan
主  演 Amani Ballour
       Salim Namour


标  签 记载片 | 叙利亚 | 2010s | 电影 | 敘利亞 | 美国 | 看过的电影 | 奥斯卡最好记载长片

简  介  

  为了躲避今朝对医院的空袭和形成很多受害者灭亡的化学兵器进犯,叙利亚的一些医务职员被迫建立隐藏的地下医院,以拯救病人的生命,避免医务职员和装备的损失。大马士革的Alghouta发生了几起化学兵器攻击事务,那边的工作职员建立了一个地下出亡所,名为“洞窟”。Amani博士和她的同事Alaa博士、护士Samaher以及其他18名妇女被选为医院的常务董事,医院共有80名员工。他们天天都面临灭亡,由于他们试图拯救他们城镇的群众的生命,并隔离和增强医院以避免进一步的进犯。

获奖情况  

  第92届奥斯卡金像奖(2020)
  最好记载长片(提名)

  第44届多伦多国际电影节(2019)
  观众挑选奖 记载片单元 菲拉斯·法耶德

  第72届美国导演工会奖(2020)
  最好记载片导演(提名) 菲拉斯·法耶德

  第31届美国制片野生会奖(2020)
  最好记载片制片人奖(提名)

  第67届美国音效剪辑协会奖(2020)
  金卷轴奖 最好记载片音效剪辑(提名)

  第24届金卫星奖(2020)
  电影部分 最好记载片(提名)

  第40届伦敦影评人协会奖(2020)
  年度记载片(提名)
  1. Video
  2. ID                                       : 3
  3. Format                                   : AVC
  4. Format/Info                              : Advanced Video Codec
  5. Format profile                           : [email protected]
  6. Format settings                          : CABAC / 5 Ref Frames
  7. Format settings, CABAC                   : Yes
  8. Format settings, Reference frames        : 5 frames
  9. Codec ID                                 : V_MPEG4/ISO/AVC
  10. Duration                                 : 1 h 36 min
  11. Bit rate                                 : 2 001 kb/s
  12. Width                                    : 1 280 pixels
  13. Height                                   : 536 pixels
  14. Display aspect ratio                     : 2.40:1
  15. Frame rate mode                          : Constant
  16. Frame rate                               : 25.000 FPS
  17. Color space                              : YUV
  18. Chroma subsampling                       : 4:2:0
  19. Bit depth                                : 8 bits
  20. Scan type                                : Progressive
  21. Bits/(Pixel*Frame)                       : 0.117
  22. Stream size                              : 1.35 GiB (89%)
  23. Writing library                          : x264 core 158 r2984 3759fcb
  24. Encoding settings                        : cabac=1 / ref=5 / deblock=1:-3:-3 / analyse=0x3:0x113 / me=hex / subme=8 / psy=1 / psy_rd=1.00:0.00 / mixed_ref=1 / me_range=16 / chroma_me=1 / trellis=2 / 8x8dct=1 / cqm=0 / deadzone=21,11 / fast_pskip=1 / chroma_qp_offset=-2 / threads=34 / lookahead_threads=4 / sliced_threads=0 / nr=0 / decimate=1 / interlaced=0 / bluray_compat=0 / constrained_intra=0 / bframes=3 / b_pyramid=2 / b_adapt=2 / b_bias=0 / direct=3 / weightb=1 / open_gop=0 / weightp=2 / keyint=250 / keyint_min=25 / scenecut=40 / intra_refresh=0 / rc_lookahead=50 / rc=crf / mbtree=1 / crf=18.0 / qcomp=0.60 / qpmin=0 / qpmax=69 / qpstep=4 / ip_ratio=1.40 / aq=1:1.00
  25. Language                                 : English
  26. Default                                  : Yes
  27. Forced                                   : No
  28. Color range                              : Limited
  29. Matrix coefficients                      : BT.709

  30. Audio
  31. ID                                       : 1
  32. Format                                   : E-AC-3
  33. Format/Info                              : Enhanced AC-3
  34. Commercial name                          : Dolby Digital Plus
  35. Codec ID                                 : A_EAC3
  36. Duration                                 : 1 h 36 min
  37. Bit rate mode                            : Constant
  38. Bit rate                                 : 256 kb/s
  39. Channel(s)                               : 6 channels
  40. Channel layout                           : L R C LFE Ls Rs
  41. Sampling rate                            : 48.0 kHz
  42. Frame rate                               : 31.250 FPS (1536 SPF)
  43. Compression mode                         : Lossy
  44. Stream size                              : 177 MiB (11%)
  45. Language                                 : English
  46. Service kind                             : Complete Main
  47. Default                                  : Yes
  48. Forced                                   : No

  49. Text
  50. ID                                       : 2
  51. Format                                   : UTF-8
  52. Codec ID                                 : S_TEXT/UTF8
  53. Codec ID/Info                            : UTF-8 Plain Text
  54. Duration                                 : 1 h 35 min
  55. Bit rate                                 : 2 b/s
  56. Count of elements                        : 117
  57. Stream size                              : 2.01 KiB (0%)
  58. Language                                 : English
  59. Default                                  : No
  60. Forced                                   : No
复制代码

洞窟里的医院 The.Cave.2020.720p.WEBRip.x264-CAFFEiNE 1.53GB-2.png






回复

使用道具 举报

懒得打字嘛,点击右侧快捷回复 【右侧内容,后台自定义】
您需要登录后才可以回帖 登录 | 立即加入

本版积分规则

Archiver|小黑屋| 蓝光电影网 |网站地图

Copyright © 2021 Comsenz Inc. Powered by 蓝光电影网

蓝光电影网

本站内容由用户自主分享和转载自互联网,转载目的在于传递更多信息,并不代表本网赞同其观点和对其真实性负责。

如有侵权、违反国家法律政策行为,请联系我们,我们会第一时间及时清除和处理!

举报反馈邮箱:[email protected]

快速回复 返回顶部 返回列表