找回密码

蓝光电影网

查看: 1018|回复: 2

[惊悚] 末路狂奔/末路狂奔I 毒贩子 Pusher.1996.1080p.BluRay.x264-FUTURiSTiC 7.95GB

[复制链接]
蓝光币
886
发表于 2020-2-2 18:41:08 | 显示全部楼层 |阅读模式
末路狂奔/末路狂奔I 毒估客 Pusher.1996.1080p.BluRay.x264-FUTURiSTiC 7.95GB-1.png

译  名 末路狂奔 / 末路狂奔I 毒估客
片  名 Pusher
年  代 1996
产  地 丹麦
类  别 惊悚 / 犯罪
语  言 丹麦语 / 瑞典语 / 塞尔维亚-克罗地亚语
上映日期 1996-08-30
IMDb评分  7.4/10 from 32420 users
IMDb链接  https://www.imdb.com/title/tt0117407
豆瓣评分 7.3/10 from 792 users
豆瓣链接 https://movie.douban.com/subject/1295855/
片  长 110分钟
导  演 尼古拉斯·温丁·雷弗恩 Nicolas Winding Refn
编  剧 Jens Dahl / 尼古拉斯·温丁·雷弗恩 Nicolas Winding Refn
主  演 金·波德尼亚 Kim Bodnia
       扎特科·巴瑞克 Zlatko Buric
       Laura Drasb?k
       Slavko Labovic
       麦斯·米科尔森 Mads Mikkelsen
       彼得·安德森 Peter Andersson
       Vanja Bajicic
       Lisbeth Rasmussen
       Levino Jensen
       托玛斯·博·拉森 Thomas Bo Larsen
       Lars Bom
       Michael Hasselflug
       尼古拉斯·温丁·雷弗恩 Nicolas Winding Refn
       Jesper Lohmann
       Steen Fridberg


标  签 丹麦 | 犯罪 | 尼古拉斯·温丁·雷弗恩 | 黑帮 | 丹麦电影 | NicolasWindingRefn | 1996 | MadsMikkelsen

简  介  

  人生都到最底了还能怎样样?毒贩法兰克丢了货也没了钱,奋力图生却只能任由四周黑暗向他逐步收拢。最生猛的暴力、罪与罚、连篇爆粗口、性、爱与变节,每一天,都加倍疯狂,也更接近灭亡。渐渐削去身为人保存的能够,那末还剩下些什么?有「丹麦的昆汀塔伦提诺」之称的尼古拉斯温丁雷弗恩一次完全对形式与甜蜜天下的黑色反动。
  《末路狂奔三部曲》由1996年的《毒估客》、2004年的《毒估客第二集,我的双手沾满血》以及2005年的《毒估客第三集,我是灭亡天使》组成。
  Pusher已经成为丹麦不朽的电影作品,导演透过三小我物的命运,描画出哥本哈根黑道贩毒界内阴晦和冲动听心的一面。三小我物的命运悲怆动人,他们的生活方式袒护了其心里深处的创伤。16岁以下不宜。
  1. Video
  2. ID                                       : 1
  3. Format                                   : AVC
  4. Format/Info                              : Advanced Video Codec
  5. Format profile                           : [email protected]
  6. Format settings                          : CABAC / 4 Ref Frames
  7. Format settings, CABAC                   : Yes
  8. Format settings, Reference frames        : 4 frames
  9. Codec ID                                 : V_MPEG4/ISO/AVC
  10. Duration                                 : 1 h 45 min
  11. Bit rate                                 : 10.3 Mb/s
  12. Width                                    : 1 920 pixels
  13. Height                                   : 1 080 pixels
  14. Display aspect ratio                     : 16:9
  15. Frame rate mode                          : Constant
  16. Frame rate                               : 25.000 FPS
  17. Color space                              : YUV
  18. Chroma subsampling                       : 4:2:0
  19. Bit depth                                : 8 bits
  20. Scan type                                : Progressive
  21. Bits/(Pixel*Frame)                       : 0.200
  22. Stream size                              : 7.46 GiB (94%)
  23. Writing library                          : x264 core 159 r2991 1771b55
  24. Encoding settings                        : cabac=1 / ref=4 / deblock=1:0:0 / analyse=0x3:0x133 / me=umh / subme=10 / psy=1 / psy_rd=1.00:0.00 / mixed_ref=1 / me_range=24 / chroma_me=1 / trellis=2 / 8x8dct=1 / cqm=0 / deadzone=21,11 / fast_pskip=1 / chroma_qp_offset=-2 / threads=24 / lookahead_threads=4 / sliced_threads=0 / nr=0 / decimate=1 / interlaced=0 / bluray_compat=0 / constrained_intra=0 / bframes=8 / b_pyramid=2 / b_adapt=2 / b_bias=0 / direct=3 / weightb=1 / open_gop=0 / weightp=2 / keyint=250 / keyint_min=25 / scenecut=40 / intra_refresh=0 / rc_lookahead=60 / rc=2pass / mbtree=1 / bitrate=10346 / ratetol=1.0 / qcomp=0.60 / qpmin=0 / qpmax=69 / qpstep=4 / cplxblur=20.0 / qblur=0.5 / ip_ratio=1.40 / aq=1:1.00
  25. Default                                  : Yes
  26. Forced                                   : No
  27. Statistics Tags Issue                    : no_variable_data 1970-01-01 00:00:00 / no_variable_data 2010-02-22 21:41:29
  28. FromStats_BitRate                        : 10344234
  29. FromStats_Duration                       : 01:45:22.720000000
  30. FromStats_FrameCount                     : 158068
  31. FromStats_StreamSize                     : 8175462386

  32. Audio
  33. ID                                       : 2
  34. Format                                   : AC-3
  35. Format/Info                              : Audio Coding 3
  36. Commercial name                          : Dolby Digital
  37. Codec ID                                 : A_AC3
  38. Duration                                 : 1 h 45 min
  39. Bit rate mode                            : Constant
  40. Bit rate                                 : 448 kb/s
  41. Channel(s)                               : 2 channels
  42. Channel layout                           : L R
  43. Sampling rate                            : 48.0 kHz
  44. Frame rate                               : 31.250 FPS (1536 SPF)
  45. Bit depth                                : 16 bits
  46. Compression mode                         : Lossy
  47. Stream size                              : 338 MiB (4%)
  48. Title                                    : Danish audio
  49. Language                                 : Danish
  50. Service kind                             : Complete Main
  51. Default                                  : Yes
  52. Forced                                   : No
  53. Statistics Tags Issue                    : no_variable_data 1970-01-01 00:00:00 / no_variable_data 2010-02-22 21:41:29
  54. FromStats_BitRate                        : 448000
  55. FromStats_Duration                       : 01:45:22.688000000
  56. FromStats_FrameCount                     : 197584
  57. FromStats_StreamSize                     : 354070528

  58. Text
  59. ID                                       : 3
  60. Format                                   : UTF-8
  61. Codec ID                                 : S_TEXT/UTF8
  62. Codec ID/Info                            : UTF-8 Plain Text
  63. Title                                    : English subtitles
  64. Language                                 : English
  65. Default                                  : Yes
  66. Forced                                   : No
  67. Statistics Tags Issue                    : no_variable_data 1970-01-01 00:00:00 / no_variable_data 2010-02-22 21:41:29
  68. FromStats_BitRate                        : 39
  69. FromStats_Duration                       : 01:37:40.320000000
  70. FromStats_FrameCount                     : 771
  71. FromStats_StreamSize                     : 29144

  72. Menu
  73. 00:00:00.000                             : en:Chapter 01
  74. 00:05:52.560                             : en:Chapter 02
  75. 00:11:21.560                             : en:Chapter 03
  76. 00:16:54.240                             : en:Chapter 04
  77. 00:26:32.000                             : en:Chapter 05
  78. 00:37:37.880                             : en:Chapter 06
  79. 00:44:14.800                             : en:Chapter 07
  80. 00:51:53.840                             : en:Chapter 08
  81. 01:03:40.480                             : en:Chapter 09
  82. 01:09:37.120                             : en:Chapter 10
  83. 01:19:43.720                             : en:Chapter 11
  84. 01:31:52.360                             : en:Chapter 12
  85. 01:41:38.120                             : en:Chapter 13
复制代码

末路狂奔/末路狂奔I 毒估客 Pusher.1996.1080p.BluRay.x264-FUTURiSTiC 7.95GB-2.png






回复

使用道具 举报

蓝光币
863
发表于 2020-2-3 10:38:58 | 显示全部楼层
谢谢楼主无私分享。
回复 支持 反对

使用道具 举报

蓝光币
814
发表于 2020-2-4 21:36:27 | 显示全部楼层
谢谢楼主分享
回复 支持 反对

使用道具 举报

懒得打字嘛,点击右侧快捷回复 【右侧内容,后台自定义】
您需要登录后才可以回帖 登录 | 立即加入

本版积分规则

Archiver|小黑屋| 蓝光电影网 |网站地图

Copyright © 2021 Comsenz Inc. Powered by 蓝光电影网

蓝光电影网

本站内容由用户自主分享和转载自互联网,转载目的在于传递更多信息,并不代表本网赞同其观点和对其真实性负责。

如有侵权、违反国家法律政策行为,请联系我们,我们会第一时间及时清除和处理!

举报反馈邮箱:[email protected]

快速回复 返回顶部 返回列表