找回密码

蓝光电影网

查看: 131|回复: 0

[剧情] 罗拉想要什么 What.Lola.Wants.2015.1080p.WEB-DL.DD5.1.H264-FGT 2.62GB

[复制链接]
蓝光币
886
发表于 2020-2-3 15:06:18 | 显示全部楼层 |阅读模式
罗拉想要什么 What.Lola.Wants.2015.1080p.WEB-DL.DD5.1.H264-FGT 2.62GB-1.png

译  名 罗拉想要什么 / Dangerous Getaway
片  名 What Lola Wants
年  代 2014
产  地 美国
类  别 剧情
语  言 英语
上映日期 2015-06-12(洛杉矶电影节)
IMDb评分  4.9/10 from 238 users
IMDb链接  https://www.imdb.com/title/tt3109188
豆瓣评分 0/10 from 0 users
豆瓣链接 https://movie.douban.com/subject/25781238/
片  长 81分钟
导  演 Rupert Glasson
编  剧 Rupert Glasson
主  演 Sophie Lowe
       Beau Knapp
       Dale Dickey


标  签 女性 | 励志

简  介  

  Seventeen year old LOLA FRANKLIN runs away from home but allows the world to believe she has been kidnapped. Intent on making her way across country, she meets a boy (MARLO) her age in a New Mexico diner. They fall instantly in love. But when Marlo learns of the reward for Lola's safe return, he must confront his own past and decide whether to take Lola back home to collect the reward or help her continue her mysterious journey.
  1. Video
  2. ID                                       : 1
  3. Format                                   : AVC
  4. Format/Info                              : Advanced Video Codec
  5. Format profile                           : [email protected]
  6. Format settings                          : CABAC / 5 Ref Frames
  7. Format settings, CABAC                   : Yes
  8. Format settings, Reference frames        : 5 frames
  9. Format settings, GOP                     : N=1
  10. Codec ID                                 : V_MPEG4/ISO/AVC
  11. Duration                                 : 1 h 17 min
  12. Bit rate                                 : 4 325 kb/s
  13. Width                                    : 1 908 pixels
  14. Height                                   : 812 pixels
  15. Display aspect ratio                     : 2.35:1
  16. Frame rate mode                          : Constant
  17. Frame rate                               : 23.976 (24000/1001) FPS
  18. Color space                              : YUV
  19. Chroma subsampling                       : 4:2:0
  20. Bit depth                                : 8 bits
  21. Scan type                                : Progressive
  22. Bits/(Pixel*Frame)                       : 0.116
  23. Stream size                              : 2.36 GiB (90%)
  24. Title                                    : What.Lola.Wants.2015.1080p.WEB-DL.DD5.1.H264-FGT
  25. Language                                 : English
  26. Default                                  : Yes
  27. Forced                                   : No
  28. Color range                              : Limited
  29. Color primaries                          : BT.709
  30. Transfer characteristics                 : BT.709
  31. Matrix coefficients                      : BT.709

  32. Audio
  33. ID                                       : 2
  34. Format                                   : AC-3
  35. Format/Info                              : Audio Coding 3
  36. Commercial name                          : Dolby Digital
  37. Codec ID                                 : A_AC3
  38. Duration                                 : 1 h 17 min
  39. Bit rate mode                            : Constant
  40. Bit rate                                 : 384 kb/s
  41. Channel(s)                               : 6 channels
  42. Channel layout                           : L R C LFE Ls Rs
  43. Sampling rate                            : 48.0 kHz
  44. Frame rate                               : 31.250 FPS (1536 SPF)
  45. Compression mode                         : Lossy
  46. Stream size                              : 214 MiB (8%)
  47. Title                                    : What.Lola.Wants.2015.1080p.WEB-DL.DD5.1.H264-FGT
  48. Language                                 : English
  49. Service kind                             : Complete Main
  50. Default                                  : Yes
  51. Forced                                   : No

  52. Text
  53. ID                                       : 3
  54. Format                                   : UTF-8
  55. Codec ID                                 : S_TEXT/UTF8
  56. Codec ID/Info                            : UTF-8 Plain Text
  57. Language                                 : English
  58. Default                                  : Yes
  59. Forced                                   : No

  60. Menu
  61. 00:00:00.000                             : en:Main Titles
  62. 00:04:57.172                             : en:"Like Vampire Evil"
  63. 00:11:31.024                             : en:Fingersmithing
  64. 00:16:56.474                             : en:"Just A Kiss"
  65. 00:22:08.786                             : en:Holdup
  66. 00:26:41.391                             : en:Unresolved Misunderstanding
  67. 00:34:08.713                             : en:"I'm Taking You Back"
  68. 00:40:07.530                             : en:A Secondary Error
  69. 00:46:14.730                             : en:A Very Bad Man
  70. 00:56:57.706                             : en:Kidnapper
  71. 01:06:34.074                             : en:Monsters
  72. 01:14:44.147                             : en:End Credits
复制代码

罗拉想要什么 What.Lola.Wants.2015.1080p.WEB-DL.DD5.1.H264-FGT 2.62GB-2.png 罗拉想要什么 What.Lola.Wants.2015.1080p.WEB-DL.DD5.1.H264-FGT 2.62GB-3.png 罗拉想要什么 What.Lola.Wants.2015.1080p.WEB-DL.DD5.1.H264-FGT 2.62GB-1.png 罗拉想要什么 What.Lola.Wants.2015.1080p.WEB-DL.DD5.1.H264-FGT 2.62GB-5.png 罗拉想要什么 What.Lola.Wants.2015.1080p.WEB-DL.DD5.1.H264-FGT 2.62GB-2.png 罗拉想要什么 What.Lola.Wants.2015.1080p.WEB-DL.DD5.1.H264-FGT 2.62GB-7.png






回复

使用道具 举报

懒得打字嘛,点击右侧快捷回复 【右侧内容,后台自定义】
您需要登录后才可以回帖 登录 | 立即加入

本版积分规则

Archiver|小黑屋| 蓝光电影网 |网站地图

Copyright © 2021 Comsenz Inc. Powered by 蓝光电影网

蓝光电影网

本站内容由用户自主分享和转载自互联网,转载目的在于传递更多信息,并不代表本网赞同其观点和对其真实性负责。

如有侵权、违反国家法律政策行为,请联系我们,我们会第一时间及时清除和处理!

举报反馈邮箱:[email protected]

快速回复 返回顶部 返回列表