找回密码

蓝光电影网

查看: 261|回复: 0

[喜剧] 异类 The.Outcasts.2017.1080p.WEB-DL.DD5.1.H264-FGT 3.65GB

[复制链接]
蓝光币
886
发表于 2020-2-3 15:10:54 | 显示全部楼层 |阅读模式


异类 The.Outcasts.2017.1080p.WEB-DL.DD5.1.H264-FGT 3.65GB-1.png

译  名 异类 / The Outskirts
片  名 The Outcasts
年  代 2017
产  地 美国
类  别 笑剧
语  言 英语
上映日期 2017-02-16(荷兰) / 2017-04-14(美国)
IMDb评分  5.5/10 from 3293 users
IMDb链接  https://www.imdb.com/title/tt2597760
豆瓣评分 5.9/10 from 252 users
豆瓣链接 https://movie.douban.com/subject/25956792/
片  长 95分钟
导  演 彼得·哈钦斯 Peter Hutchings
编  剧 Dominique Ferrari / Suzanne Wrubel
主  演 爱登·舍尔 Eden Sher
       维多利亚·嘉丝蒂 Victoria Justice
       佩顿·李斯特 Peyton R. List
       弗兰克·威利 Frank Whaley
       阿万·乔贾 Avan Jogia
       阿什利·理查兹 Ashley Rickards
       Ted McGinley
       克劳迪娅·李 Claudia Lee
       威廉·佩尔茨 william peltz
       凯蒂·张 Katie Chang
       诺亚·罗宾斯 Noah Robbins


标  签 青春 | 校园 | 笑剧 | 美国 | 美国电影 | 友谊 | 电影 | 2017

简  介  

  一场恶作剧激起了校园中两个“异类”复仇的决心,她们掀起了一场反动,团结起那些同病相连的人,反动的队伍越来越强大;而已经的校园女王渐渐被萧瑟,并遭到报复。当异类们成了支流,当支流们成了异类,一切会就此停息吗?
  1. Video
  2. ID                                       : 1
  3. Format                                   : AVC
  4. Format/Info                              : Advanced Video Codec
  5. Format profile                           : [email protected]
  6. Format settings                          : CABAC / 4 Ref Frames
  7. Format settings, CABAC                   : Yes
  8. Format settings, Reference frames        : 4 frames
  9. Codec ID                                 : V_MPEG4/ISO/AVC
  10. Duration                                 : 1 h 34 min
  11. Bit rate                                 : 5 054 kb/s
  12. Width                                    : 1 920 pixels
  13. Height                                   : 1 032 pixels
  14. Display aspect ratio                     : 1.85:1
  15. Frame rate mode                          : Constant
  16. Frame rate                               : 23.976 FPS
  17. Color space                              : YUV
  18. Chroma subsampling                       : 4:2:0
  19. Bit depth                                : 8 bits
  20. Scan type                                : Progressive
  21. Bits/(Pixel*Frame)                       : 0.106
  22. Stream size                              : 3.33 GiB (91%)
  23. Title                                    : The.Outcasts.2017.1080p.WEB-DL.DD5.1.H264-FGT
  24. Language                                 : English
  25. Default                                  : Yes
  26. Forced                                   : No
  27. Color range                              : Limited
  28. Color primaries                          : BT.709
  29. Transfer characteristics                 : BT.709
  30. Matrix coefficients                      : BT.709

  31. Audio
  32. ID                                       : 2
  33. Format                                   : AC-3
  34. Format/Info                              : Audio Coding 3
  35. Commercial name                          : Dolby Digital
  36. Codec ID                                 : A_AC3
  37. Duration                                 : 1 h 34 min
  38. Bit rate mode                            : Constant
  39. Bit rate                                 : 384 kb/s
  40. Channel(s)                               : 6 channels
  41. Channel layout                           : L R C LFE Ls Rs
  42. Sampling rate                            : 48.0 kHz
  43. Frame rate                               : 31.250 FPS (1536 SPF)
  44. Compression mode                         : Lossy
  45. Stream size                              : 259 MiB (7%)
  46. Title                                    : The.Outcasts.2017.1080p.WEB-DL.DD5.1.H264-FGT
  47. Language                                 : English
  48. Service kind                             : Complete Main
  49. Default                                  : Yes
  50. Forced                                   : No

  51. Text
  52. ID                                       : 3
  53. Format                                   : UTF-8
  54. Codec ID                                 : S_TEXT/UTF8
  55. Codec ID/Info                            : UTF-8 Plain Text
  56. Language                                 : English
  57. Default                                  : Yes
  58. Forced                                   : No

  59. Menu
  60. 00:00:00.000                             : en:Opening Sequence
  61. 00:05:15.000                             : en:Stick Around
  62. 00:11:09.000                             : en:Guests Of Honour
  63. 00:16:36.000                             : en:Cookies
  64. 00:23:00.000                             : en:Speak
  65. 00:29:10.000                             : en:I Want To
  66. 00:34:45.000                             : en:Hand It Over
  67. 00:40:40.000                             : en:Tiny Dancer
  68. 00:46:34.000                             : en:Protest
  69. 00:51:51.000                             : en:Call Me
  70. 00:58:13.000                             : en:It's Called Revenge
  71. 01:03:22.000                             : en:Drug Prom
  72. 01:07:50.000                             : en:My Therapist Is Right
  73. 01:13:18.000                             : en:Little Dance
  74. 01:19:23.000                             : en:Proud Of You
  75. 01:27:48.000                             : en:End Credits
复制代码

异类 The.Outcasts.2017.1080p.WEB-DL.DD5.1.H264-FGT 3.65GB-2.png 异类 The.Outcasts.2017.1080p.WEB-DL.DD5.1.H264-FGT 3.65GB-3.png 异类 The.Outcasts.2017.1080p.WEB-DL.DD5.1.H264-FGT 3.65GB-4.png 异类 The.Outcasts.2017.1080p.WEB-DL.DD5.1.H264-FGT 3.65GB-5.png 异类 The.Outcasts.2017.1080p.WEB-DL.DD5.1.H264-FGT 3.65GB-6.png 异类 The.Outcasts.2017.1080p.WEB-DL.DD5.1.H264-FGT 3.65GB-7.png






回复

使用道具 举报

懒得打字嘛,点击右侧快捷回复 【右侧内容,后台自定义】
您需要登录后才可以回帖 登录 | 立即加入

本版积分规则

Archiver|小黑屋| 蓝光电影网 |网站地图

Copyright © 2021 Comsenz Inc. Powered by 蓝光电影网

蓝光电影网

本站内容由用户自主分享和转载自互联网,转载目的在于传递更多信息,并不代表本网赞同其观点和对其真实性负责。

如有侵权、违反国家法律政策行为,请联系我们,我们会第一时间及时清除和处理!

举报反馈邮箱:[email protected]

快速回复 返回顶部 返回列表