找回密码

蓝光电影网

查看: 125|回复: 0

[剧情] 曼哈顿的永恒 Manhattan.Undying.2016.1080p.WEB-DL.DD5.1.H264-FGT 3.04GB

[复制链接]
蓝光币
886
发表于 2020-2-3 15:22:23 | 显示全部楼层 |阅读模式
曼哈顿的永久 Manhattan.Undying.2016.1080p.WEB-DL.DD5.1.H264-FGT 3.04GB-1.png

译  名 曼哈顿的永久
片  名 Manhattan Undying
年  代 2015
产  地 加拿大 Canada
类  别 剧情
语  言 英语
IMDb评分  4.6/10 from 368 users
IMDb链接  https://www.imdb.com/title/tt2330973
豆瓣评分 0/10 from 0 users
豆瓣链接 https://movie.douban.com/subject/24706575/
片  长 90分钟
导  演 巴巴克?柏雅米 Babak Payami
编  剧 Matt Deller
主  演 萨拉·罗默尔 Sarah Roemer
       丹尼尔·卡什 Daniel Kash
       卢克·葛莱姆斯 Luke Grimes
       克里斯托弗·贾科特 Christopher Jacot


标  签 恋爱 | 吸血鬼 | 加拿大电影 | 美国 | 情色 | 2015

简  介  

  A vampire seeks out an artist to paint her a portrait so that she can see her image for the first time.
  1. Video
  2. ID                                       : 1
  3. Format                                   : AVC
  4. Format/Info                              : Advanced Video Codec
  5. Format profile                           : [email protected]
  6. Format settings                          : CABAC / 5 Ref Frames
  7. Format settings, CABAC                   : Yes
  8. Format settings, Reference frames        : 5 frames
  9. Codec ID                                 : V_MPEG4/ISO/AVC
  10. Duration                                 : 1 h 27 min
  11. Bit rate                                 : 4 478 kb/s
  12. Width                                    : 1 920 pixels
  13. Height                                   : 804 pixels
  14. Display aspect ratio                     : 2.40:1
  15. Frame rate mode                          : Constant
  16. Frame rate                               : 23.976 (24000/1001) FPS
  17. Color space                              : YUV
  18. Chroma subsampling                       : 4:2:0
  19. Bit depth                                : 8 bits
  20. Scan type                                : Progressive
  21. Bits/(Pixel*Frame)                       : 0.121
  22. Stream size                              : 2.75 GiB (90%)
  23. Title                                    : Manhattan.Undying.2016.1080p.WEB-DL.DD5.1.H264-FGT
  24. Language                                 : English
  25. Default                                  : Yes
  26. Forced                                   : No
  27. Color range                              : Limited
  28. Color primaries                          : BT.709
  29. Transfer characteristics                 : BT.709
  30. Matrix coefficients                      : BT.709

  31. Audio
  32. ID                                       : 2
  33. Format                                   : AC-3
  34. Format/Info                              : Audio Coding 3
  35. Commercial name                          : Dolby Digital
  36. Codec ID                                 : A_AC3
  37. Duration                                 : 1 h 27 min
  38. Bit rate mode                            : Constant
  39. Bit rate                                 : 384 kb/s
  40. Channel(s)                               : 6 channels
  41. Channel layout                           : L R C LFE Ls Rs
  42. Sampling rate                            : 48.0 kHz
  43. Frame rate                               : 31.250 FPS (1536 SPF)
  44. Compression mode                         : Lossy
  45. Stream size                              : 241 MiB (8%)
  46. Title                                    : Manhattan.Undying.2016.1080p.WEB-DL.DD5.1.H264-FGT
  47. Language                                 : English
  48. Service kind                             : Complete Main
  49. Default                                  : Yes
  50. Forced                                   : No

  51. Text
  52. ID                                       : 3
  53. Format                                   : UTF-8
  54. Codec ID                                 : S_TEXT/UTF8
  55. Codec ID/Info                            : UTF-8 Plain Text
  56. Language                                 : English
  57. Default                                  : Yes
  58. Forced                                   : No

  59. Menu
  60. 00:00:00.000                             : en:1
  61. 00:05:23.198                             : en:2
  62. 00:11:56.507                             : en:3
  63. 00:17:38.223                             : en:4
  64. 00:21:16.441                             : en:5
  65. 00:27:18.636                             : en:6
  66. 00:34:12.174                             : en:7
  67. 00:42:55.530                             : en:8
  68. 00:45:56.836                             : en:9
  69. 00:50:17.763                             : en:10
  70. 00:55:10.931                             : en:11
  71. 01:00:34.546                             : en:12
  72. 01:04:36.579                             : en:13
  73. 01:08:50.583                             : en:14
  74. 01:15:19.805                             : en:15
  75. 01:21:08.695                             : en:16
复制代码

曼哈顿的永久 Manhattan.Undying.2016.1080p.WEB-DL.DD5.1.H264-FGT 3.04GB-2.png 曼哈顿的永久 Manhattan.Undying.2016.1080p.WEB-DL.DD5.1.H264-FGT 3.04GB-3.png 曼哈顿的永久 Manhattan.Undying.2016.1080p.WEB-DL.DD5.1.H264-FGT 3.04GB-4.png 曼哈顿的永久 Manhattan.Undying.2016.1080p.WEB-DL.DD5.1.H264-FGT 3.04GB-5.png 曼哈顿的永久 Manhattan.Undying.2016.1080p.WEB-DL.DD5.1.H264-FGT 3.04GB-6.png 曼哈顿的永久 Manhattan.Undying.2016.1080p.WEB-DL.DD5.1.H264-FGT 3.04GB-7.png






回复

使用道具 举报

懒得打字嘛,点击右侧快捷回复 【右侧内容,后台自定义】
您需要登录后才可以回帖 登录 | 立即加入

本版积分规则

Archiver|小黑屋| 蓝光电影网 |网站地图

Copyright © 2021 Comsenz Inc. Powered by 蓝光电影网

蓝光电影网

本站内容由用户自主分享和转载自互联网,转载目的在于传递更多信息,并不代表本网赞同其观点和对其真实性负责。

如有侵权、违反国家法律政策行为,请联系我们,我们会第一时间及时清除和处理!

举报反馈邮箱:[email protected]

快速回复 返回顶部 返回列表