找回密码

蓝光电影网

查看: 214|回复: 0

[纪录] 真谛存星空 The.Truth.is.in.the.Stars.2017.1080p.WEBRip.x264-NCC1701D 5.06GB

[复制链接]
蓝光币
886
发表于 2020-2-3 15:59:40 | 显示全部楼层 |阅读模式
真理存星空 The.Truth.is.in.the.Stars.2017.1080p.WEBRip.x264-NCC1701D 5.06GB-1.png

译  名 真理存星空
片  名 The Truth is in the Stars
年  代 2017
产  地 美国
类  别 记载片
语  言 英语
上映日期 2017-07-01(美国)
IMDb评分  6.7/10 from 361 users
IMDb链接  https://www.imdb.com/title/tt7104950
豆瓣评分 0/10 from 0 users
豆瓣链接 https://movie.douban.com/subject/27092224/
片  长 86分钟
导  演 Craig Thompson
主  演 Stephen Hawking
       William Shatner
       Ben Stiller


标  签 WilliamShatner | 2017 | 记载 | 紀錄片 | 美国电影 | 记载片 | documentary | 美国记载片

简  介  

  William Shatner sits down with scientists| innovators and celebrities to discuss how the optimism of "Star Trek" influenced multiple generations.
  1. Video
  2. ID                                       : 1
  3. Format                                   : AVC
  4. Format/Info                              : Advanced Video Codec
  5. Format profile                           : [email protected]
  6. Format settings                          : CABAC / 4 Ref Frames
  7. Format settings, CABAC                   : Yes
  8. Format settings, Reference frames        : 4 frames
  9. Codec ID                                 : V_MPEG4/ISO/AVC
  10. Duration                                 : 1 h 26 min
  11. Bit rate                                 : 8 023 kb/s
  12. Width                                    : 1 920 pixels
  13. Height                                   : 1 080 pixels
  14. Display aspect ratio                     : 16:9
  15. Frame rate mode                          : Constant
  16. Frame rate                               : 23.976 (24000/1001) FPS
  17. Color space                              : YUV
  18. Chroma subsampling                       : 4:2:0
  19. Bit depth                                : 8 bits
  20. Scan type                                : Progressive
  21. Bits/(Pixel*Frame)                       : 0.161
  22. Stream size                              : 4.82 GiB (95%)
  23. Writing library                          : x264 core 152 r2851 ba24899
  24. Encoding settings                        : cabac=1 / ref=4 / deblock=1:-3:-3 / analyse=0x3:0x133 / me=umh / subme=9 / psy=1 / psy_rd=1.00:0.00 / mixed_ref=1 / me_range=16 / chroma_me=1 / trellis=2 / 8x8dct=1 / cqm=0 / deadzone=21,11 / fast_pskip=1 / chroma_qp_offset=-2 / threads=12 / lookahead_threads=1 / sliced_threads=0 / nr=0 / decimate=1 / interlaced=0 / bluray_compat=0 / constrained_intra=0 / bframes=3 / b_pyramid=2 / b_adapt=2 / b_bias=0 / direct=3 / weightb=1 / open_gop=0 / weightp=2 / keyint=240 / keyint_min=24 / scenecut=40 / intra_refresh=0 / rc_lookahead=60 / rc=crf / mbtree=1 / crf=17.0 / qcomp=0.60 / qpmin=0 / qpmax=69 / qpstep=4 / ip_ratio=1.40 / aq=1:1.00
  25. Language                                 : English
  26. Default                                  : Yes
  27. Forced                                   : No

  28. Audio
  29. ID                                       : 2
  30. Format                                   : AC-3
  31. Format/Info                              : Audio Coding 3
  32. Commercial name                          : Dolby Digital
  33. Codec ID                                 : A_AC3
  34. Duration                                 : 1 h 26 min
  35. Bit rate mode                            : Constant
  36. Bit rate                                 : 384 kb/s
  37. Channel(s)                               : 6 channels
  38. Channel layout                           : L R C LFE Ls Rs
  39. Sampling rate                            : 48.0 kHz
  40. Frame rate                               : 31.250 FPS (1536 SPF)
  41. Compression mode                         : Lossy
  42. Stream size                              : 236 MiB (5%)
  43. Language                                 : English
  44. Service kind                             : Complete Main
  45. Default                                  : Yes
  46. Forced                                   : No

  47. Text #1
  48. ID                                       : 3
  49. Format                                   : UTF-8
  50. Codec ID                                 : S_TEXT/UTF8
  51. Codec ID/Info                            : UTF-8 Plain Text
  52. Duration                                 : 1 h 22 min
  53. Bit rate                                 : 97 b/s
  54. Count of elements                        : 1938
  55. Stream size                              : 58.8 KiB (0%)
  56. Title                                    : English
  57. Language                                 : English
  58. Default                                  : No
  59. Forced                                   : No

  60. Text #2
  61. ID                                       : 4
  62. Format                                   : UTF-8
  63. Codec ID                                 : S_TEXT/UTF8
  64. Codec ID/Info                            : UTF-8 Plain Text
  65. Duration                                 : 1 h 23 min
  66. Bit rate                                 : 101 b/s
  67. Count of elements                        : 2003
  68. Stream size                              : 62.3 KiB (0%)
  69. Title                                    : English SDH
  70. Language                                 : English
  71. Default                                  : No
  72. Forced                                   : No
复制代码

真理存星空 The.Truth.is.in.the.Stars.2017.1080p.WEBRip.x264-NCC1701D 5.06GB-2.png 真理存星空 The.Truth.is.in.the.Stars.2017.1080p.WEBRip.x264-NCC1701D 5.06GB-3.png 真理存星空 The.Truth.is.in.the.Stars.2017.1080p.WEBRip.x264-NCC1701D 5.06GB-4.png 真理存星空 The.Truth.is.in.the.Stars.2017.1080p.WEBRip.x264-NCC1701D 5.06GB-5.png 真理存星空 The.Truth.is.in.the.Stars.2017.1080p.WEBRip.x264-NCC1701D 5.06GB-1.png 真理存星空 The.Truth.is.in.the.Stars.2017.1080p.WEBRip.x264-NCC1701D 5.06GB-7.png






回复

使用道具 举报

懒得打字嘛,点击右侧快捷回复 【右侧内容,后台自定义】
您需要登录后才可以回帖 登录 | 立即加入

本版积分规则

Archiver|小黑屋| 蓝光电影网 |网站地图

Copyright © 2021 Comsenz Inc. Powered by 蓝光电影网

蓝光电影网

本站内容由用户自主分享和转载自互联网,转载目的在于传递更多信息,并不代表本网赞同其观点和对其真实性负责。

如有侵权、违反国家法律政策行为,请联系我们,我们会第一时间及时清除和处理!

举报反馈邮箱:[email protected]

快速回复 返回顶部 返回列表