找回密码

蓝光电影网

查看: 474|回复: 3

[恐怖] 深度恐惧 Phobia.2013.1080p.WEB-DL.DD5.1.H264-FGT 3.31GB

[复制链接]
蓝光币
886
发表于 2020-2-3 16:07:12 | 显示全部楼层 |阅读模式
深度恐惧 Phobia.2013.1080p.WEB-DL.DD5.1.H264-FGT 3.31GB-1.png

译  名 深度恐惧 / Alone
片  名 phobia
年  代 2014
产  地 美国
类  别 悬疑 / 惊悚 / 可骇
语  言 英语
IMDb评分  3.4/10 from 167 users
IMDb链接  https://www.imdb.com/title/tt1800240
豆瓣评分 5.4/10 from 165 users
豆瓣链接 https://movie.douban.com/subject/26294893/
片  长 84分钟
导  演 Rory Douglas Abel
编  剧 Rory Douglas Abel
主  演 Michael Jefferson
       Andrew Ruth


标  签 可骇 | 惊悚 | 美国 | 悬疑 | 可骇电影 | 2014 | 差 | 英语片

简  介  

  Jonathan MacKinlay(Michael Jefferson 饰)履历了一场可骇的车祸,这场车祸杀死了他的妻子,自此事以后,Jonathan MacKinlay一向得了可骇症。妻子死后,他将自己困在家中,天天如此,只要他最好的朋友Taylor(Andrew Ruth 饰)、他的心理医生能帮他打破这类单调有趣的生活。后来,他起头相信有邪恶气力存在于他的家中,可是,这是真的吗?还是他自己的设想呢?他将要找到正确答案。
  1. Video
  2. ID                                       : 1
  3. Format                                   : AVC
  4. Format/Info                              : Advanced Video Codec
  5. Format profile                           : [email protected]
  6. Format settings                          : CABAC / 4 Ref Frames
  7. Format settings, CABAC                   : Yes
  8. Format settings, Reference frames        : 4 frames
  9. Codec ID                                 : V_MPEG4/ISO/AVC
  10. Duration                                 : 1 h 30 min
  11. Bit rate                                 : 4 732 kb/s
  12. Width                                    : 1 912 pixels
  13. Height                                   : 1 072 pixels
  14. Display aspect ratio                     : 16:9
  15. Frame rate mode                          : Constant
  16. Frame rate                               : 23.976 FPS
  17. Color space                              : YUV
  18. Chroma subsampling                       : 4:2:0
  19. Bit depth                                : 8 bits
  20. Scan type                                : Progressive
  21. Bits/(Pixel*Frame)                       : 0.096
  22. Stream size                              : 3.00 GiB (91%)
  23. Language                                 : English
  24. Default                                  : Yes
  25. Forced                                   : No
  26. Color range                              : Limited
  27. Color primaries                          : BT.709
  28. Transfer characteristics                 : BT.709
  29. Matrix coefficients                      : BT.709

  30. Audio
  31. ID                                       : 2
  32. Format                                   : AC-3
  33. Format/Info                              : Audio Coding 3
  34. Commercial name                          : Dolby Digital
  35. Codec ID                                 : A_AC3
  36. Duration                                 : 1 h 30 min
  37. Bit rate mode                            : Constant
  38. Bit rate                                 : 384 kb/s
  39. Channel(s)                               : 6 channels
  40. Channel layout                           : L R C LFE Ls Rs
  41. Sampling rate                            : 48.0 kHz
  42. Frame rate                               : 31.250 FPS (1536 SPF)
  43. Compression mode                         : Lossy
  44. Stream size                              : 249 MiB (7%)
  45. Language                                 : English
  46. Service kind                             : Complete Main
  47. Default                                  : Yes
  48. Forced                                   : No

  49. Text
  50. ID                                       : 3
  51. Format                                   : UTF-8
  52. Codec ID                                 : S_TEXT/UTF8
  53. Codec ID/Info                            : UTF-8 Plain Text
  54. Language                                 : English
  55. Default                                  : No
  56. Forced                                   : No

  57. Menu
  58. 00:00:00.000                             : en:Chapter 1
  59. 00:11:06.000                             : en:Chapter 2
  60. 00:21:31.000                             : en:Chapter 3
  61. 00:31:05.000                             : en:Chapter 4
  62. 00:43:00.000                             : en:Chapter 5
  63. 00:50:55.000                             : en:Chapter 6
  64. 01:01:46.000                             : en:Chapter 7
  65. 01:12:48.000                             : en:Chapter 8
  66. 01:21:37.000                             : en:Chapter 9
复制代码

深度恐惧 Phobia.2013.1080p.WEB-DL.DD5.1.H264-FGT 3.31GB-2.png 深度恐惧 Phobia.2013.1080p.WEB-DL.DD5.1.H264-FGT 3.31GB-3.png 深度恐惧 Phobia.2013.1080p.WEB-DL.DD5.1.H264-FGT 3.31GB-4.png 深度恐惧 Phobia.2013.1080p.WEB-DL.DD5.1.H264-FGT 3.31GB-5.png 深度恐惧 Phobia.2013.1080p.WEB-DL.DD5.1.H264-FGT 3.31GB-6.png 深度恐惧 Phobia.2013.1080p.WEB-DL.DD5.1.H264-FGT 3.31GB-7.png






回复

使用道具 举报

懒得打字嘛,点击右侧快捷回复 【右侧内容,后台自定义】
您需要登录后才可以回帖 登录 | 立即加入

本版积分规则

Archiver|小黑屋| 蓝光电影网 |网站地图

Copyright © 2021 Comsenz Inc. Powered by 蓝光电影网

蓝光电影网

本站内容由用户自主分享和转载自互联网,转载目的在于传递更多信息,并不代表本网赞同其观点和对其真实性负责。

如有侵权、违反国家法律政策行为,请联系我们,我们会第一时间及时清除和处理!

举报反馈邮箱:[email protected]

快速回复 返回顶部 返回列表