找回密码

蓝光电影网

查看: 443|回复: 0

[悬疑] 信徒 Believers.2007.UNRATED.1080p.WEB-DL.DD5.1.H264-MooMa 3.74GB

[复制链接]
蓝光币
1022
发表于 2020-2-4 11:32:15 | 显示全部楼层 |阅读模式
信徒 Believers.2007.UNRATED.1080p.WEB-DL.DD5.1.H264-MooMa 3.74GB-1.png

译  名 信徒
片  名 Believers
年  代 2007
产  地 美国
类  别 悬疑 / 惊悚 / 可骇
语  言 英语
上映日期 2007-06-11
IMDb评分  5.2/10 from 2171 users
IMDb链接  https://www.imdb.com/title/tt0878652
豆瓣评分 5.3/10 from 504 users
豆瓣链接 https://movie.douban.com/subject/2134543/
片  长 Germany: 95 分钟
导  演 丹尼尔·米瑞克 Daniel Myrick
编  剧 Julia Fair / Daniel Myrick
主  演 约翰尼·梅斯勒 Johnny Messner ...  David Vaughn
       Elizabeth Bogush ...  Deborah
       John Farley ...  Glasses


标  签 美国 | 宗教 | 惊悚 | 可骇 | 美国电影 | 科幻 | 我看过的英语电影 | 2007

简  介  

  While answering a distress call from a young girl whose mother has lost consciousness, paramedics David Vaughn (Johnny Messner) and Victor Hernandez (Jon Huertas) are drawn into a trap by a secret cult. The men's resistance is put to the test when they are taken to an isolated building for brainwashing. As Victor begins to question his own beliefs, David knows he must find a way out... and fast.
  1. Video
  2. ID                                       : 1
  3. Format                                   : AVC
  4. Format/Info                              : Advanced Video Codec
  5. Format profile                           : [email protected]
  6. Format settings                          : CABAC / 4 Ref Frames
  7. Format settings, CABAC                   : Yes
  8. Format settings, Reference frames        : 4 frames
  9. Muxing mode                              : Header stripping
  10. Codec ID                                 : V_MPEG4/ISO/AVC
  11. Duration                                 : 1 h 42 min
  12. Bit rate                                 : 4 726 kb/s
  13. Width                                    : 1 912 pixels
  14. Height                                   : 1 072 pixels
  15. Display aspect ratio                     : 16:9
  16. Frame rate mode                          : Constant
  17. Frame rate                               : 23.976 FPS
  18. Color space                              : YUV
  19. Chroma subsampling                       : 4:2:0
  20. Bit depth                                : 8 bits
  21. Scan type                                : Progressive
  22. Bits/(Pixel*Frame)                       : 0.096
  23. Stream size                              : 3.39 GiB (91%)
  24. Language                                 : English
  25. Default                                  : Yes
  26. Forced                                   : No
  27. Color range                              : Limited
  28. Color primaries                          : BT.709
  29. Transfer characteristics                 : BT.709
  30. Matrix coefficients                      : BT.709

  31. Audio
  32. ID                                       : 2
  33. Format                                   : AC-3
  34. Format/Info                              : Audio Coding 3
  35. Commercial name                          : Dolby Digital
  36. Muxing mode                              : Header stripping
  37. Codec ID                                 : A_AC3
  38. Duration                                 : 1 h 42 min
  39. Bit rate mode                            : Constant
  40. Bit rate                                 : 384 kb/s
  41. Channel(s)                               : 6 channels
  42. Channel layout                           : L R C LFE Ls Rs
  43. Sampling rate                            : 48.0 kHz
  44. Frame rate                               : 31.250 FPS (1536 SPF)
  45. Bit depth                                : 16 bits
  46. Compression mode                         : Lossy
  47. Stream size                              : 282 MiB (7%)
  48. Language                                 : English
  49. Service kind                             : Complete Main
  50. Default                                  : Yes
  51. Forced                                   : No
复制代码

信徒 Believers.2007.UNRATED.1080p.WEB-DL.DD5.1.H264-MooMa 3.74GB-2.png 信徒 Believers.2007.UNRATED.1080p.WEB-DL.DD5.1.H264-MooMa 3.74GB-1.png 信徒 Believers.2007.UNRATED.1080p.WEB-DL.DD5.1.H264-MooMa 3.74GB-4.png






回复

使用道具 举报

懒得打字嘛,点击右侧快捷回复 【右侧内容,后台自定义】
您需要登录后才可以回帖 登录 | 立即加入

本版积分规则

Archiver|小黑屋| 蓝光电影网 |网站地图

Copyright © 2021 Comsenz Inc. Powered by 蓝光电影网

蓝光电影网

本站内容由用户自主分享和转载自互联网,转载目的在于传递更多信息,并不代表本网赞同其观点和对其真实性负责。

如有侵权、违反国家法律政策行为,请联系我们,我们会第一时间及时清除和处理!

举报反馈邮箱:[email protected]

快速回复 返回顶部 返回列表