找回密码

蓝光电影网

查看: 440|回复: 0

[剧情] 提灯天使 The.Lady.with.a.Lamp.1951.1080p.BluRay.REMUX.AVC.LPCM.2.0-FGT 18.49GB

[复制链接]
蓝光币
1022
发表于 2020-2-4 12:03:32 | 显示全部楼层 |阅读模式
提灯天使 The.Lady.with.a.Lamp.1951.1080p.BluRay.REMUX.AVC.LPCM.2.0-FGT 18.49GB-1.png

译  名 提灯天使
片  名 The Lady with the Lamp
年  代 1951
产  地 英国
类  别 剧情
语  言 英语
上映日期 1951
IMDb评分  6.3/10 from 103 users
IMDb链接  https://www.imdb.com/title/tt0043724
豆瓣评分 0/10 from 0 users
豆瓣链接 https://movie.douban.com/subject/5065746/
片  长 110 分钟
导  演 Herbert Wilcox
编  剧 Reginald Berkeley
主  演 安娜·尼格尔 Anna Neagle
       迈克·怀尔登 Michael Wilding


标  签 英国 | 列传 | 英国电影 | 电影 | 1950s

简  介  

  暂无相关剧情先容
  1. Video
  2. ID                                       : 1
  3. Format                                   : AVC
  4. Format/Info                              : Advanced Video Codec
  5. Format profile                           : [email protected]
  6. Format settings                          : CABAC / 3 Ref Frames
  7. Format settings, CABAC                   : Yes
  8. Format settings, Reference frames        : 3 frames
  9. Format settings, GOP                     : M=3, N=12
  10. Codec ID                                 : V_MPEG4/ISO/AVC
  11. Duration                                 : 1 h 43 min
  12. Bit rate mode                            : Variable
  13. Bit rate                                 : 24.0 Mb/s
  14. Maximum bit rate                         : 33.0 Mb/s
  15. Width                                    : 1 920 pixels
  16. Height                                   : 1 080 pixels
  17. Display aspect ratio                     : 16:9
  18. Frame rate mode                          : Constant
  19. Frame rate                               : 24.000 FPS
  20. Standard                                 : NTSC
  21. Color space                              : YUV
  22. Chroma subsampling                       : 4:2:0
  23. Bit depth                                : 8 bits
  24. Scan type                                : Progressive
  25. Bits/(Pixel*Frame)                       : 0.482
  26. Stream size                              : 17.4 GiB (94%)
  27. Title                                    : The.Lady.with.a.Lamp.1951.1080p.BluRay.REMUX.AVC.LPCM.2.0-FGT
  28. Language                                 : English
  29. Default                                  : No
  30. Forced                                   : No
  31. Color range                              : Limited
  32. Color primaries                          : BT.709
  33. Transfer characteristics                 : BT.709
  34. Matrix coefficients                      : BT.709

  35. Audio
  36. ID                                       : 2
  37. Format                                   : PCM
  38. Format settings                          : Little / Signed
  39. Codec ID                                 : A_PCM/INT/LIT
  40. Duration                                 : 1 h 43 min
  41. Bit rate mode                            : Constant
  42. Bit rate                                 : 1 536 kb/s
  43. Channel(s)                               : 2 channels
  44. Sampling rate                            : 48.0 kHz
  45. Frame rate                               : 30.000 FPS (1600 SPF)
  46. Bit depth                                : 16 bits
  47. Stream size                              : 1.11 GiB (6%)
  48. Title                                    : The.Lady.with.a.Lamp.1951.1080p.BluRay.REMUX.AVC.LPCM.2.0-FGT
  49. Language                                 : English
  50. Default                                  : Yes
  51. Forced                                   : No

  52. Text
  53. ID                                       : 3
  54. Format                                   : PGS
  55. Muxing mode                              : zlib
  56. Codec ID                                 : S_HDMV/PGS
  57. Codec ID/Info                            : Picture based subtitle format used on BDs/HD-DVDs
  58. Duration                                 : 1 h 43 min
  59. Bit rate                                 : 50.8 kb/s
  60. Count of elements                        : 2444
  61. Stream size                              : 37.5 MiB (0%)
  62. Title                                    : English-PGS
  63. Language                                 : English
  64. Default                                  : Yes
  65. Forced                                   : No

  66. Menu
  67. 00:00:00.000                             : en:Chapter 01
  68. 00:09:48.375                             : en:Chapter 02
  69. 00:20:13.666                             : en:Chapter 03
  70. 00:28:52.750                             : en:Chapter 04
  71. 00:38:04.416                             : en:Chapter 05
  72. 00:46:07.875                             : en:Chapter 06
  73. 00:51:51.500                             : en:Chapter 07
  74. 01:01:05.291                             : en:Chapter 08
  75. 01:08:17.375                             : en:Chapter 09
  76. 01:18:03.916                             : en:Chapter 10
  77. 01:28:54.000                             : en:Chapter 11
  78. 01:38:01.416                             : en:Chapter 12
复制代码

提灯天使 The.Lady.with.a.Lamp.1951.1080p.BluRay.REMUX.AVC.LPCM.2.0-FGT 18.49GB-1.png 提灯天使 The.Lady.with.a.Lamp.1951.1080p.BluRay.REMUX.AVC.LPCM.2.0-FGT 18.49GB-3.png 提灯天使 The.Lady.with.a.Lamp.1951.1080p.BluRay.REMUX.AVC.LPCM.2.0-FGT 18.49GB-4.png






回复

使用道具 举报

懒得打字嘛,点击右侧快捷回复 【右侧内容,后台自定义】
您需要登录后才可以回帖 登录 | 立即加入

本版积分规则

Archiver|小黑屋| 蓝光电影网 |网站地图

Copyright © 2021 Comsenz Inc. Powered by 蓝光电影网

蓝光电影网

本站内容由用户自主分享和转载自互联网,转载目的在于传递更多信息,并不代表本网赞同其观点和对其真实性负责。

如有侵权、违反国家法律政策行为,请联系我们,我们会第一时间及时清除和处理!

举报反馈邮箱:[email protected]

快速回复 返回顶部 返回列表