找回密码

查看: 1248|回复: 0

[2160p] 疾速备战 John.Wick.Chapter.3.Parabellum.2019.INTERNAL.2160p.WEB.X265-DEFLATE 12.68GB

[复制链接]
蓝光币
1840
发表于 2019-8-23 14:18:09 | 显示全部楼层 |阅读模式


◎译  名 快速备战 / Alpha Cop / John Wick 3 / John Wick 3: Parabellum / John Wick: Chapter 3 / 保卫使命3:周全开战(台) / 杀神John Wick 3(港) / 极速追杀:第三章 / 快速追杀3 / 快速流亡 / 约翰·威克3 / 还我狗命3(豆友译名)
◎片  名 John Wick: Chapter 3 - Parabellum
◎年  代 2019
◎产  地 美国
◎类  别 行动 / 惊悚 / 犯罪
◎语  言 英语 / 俄语 / 日语 / 意大利语 / 阿拉伯语
◎上映日期 2019-05-17(美国)
◎IMDb评分  7.8/10 from 130864 users
◎IMDb链接  http://www.imdb.com/title/tt6146586
◎豆瓣评分 8.0/10 from 49459 users
◎豆瓣链接 https://movie.douban.com/subject/26909790/
◎片  长 131分钟
◎导  演 查德·斯塔赫斯基 Chad Stahelski
◎编  剧 德里克·科尔斯塔 Derek Kolstad / 谢伊·哈滕  Shay Hatten / 克里斯·柯林斯 Chris Collins / 马克·艾布拉姆斯 Marc Abrams
◎主  演 基努·里维斯 Keanu Reeves
       哈莉·贝瑞 Halle Berry
       劳伦斯·菲什伯恩 Laurence Fishburne
       安杰丽卡·休斯顿 Anjelica Huston
       伊恩·麦柯肖恩 Ian McShane
       马克·达卡斯考斯 Mark Dacascos
       艾莎·凯特·狄龙 Asia Kate Dillon
       兰斯·莱迪克 Lance Reddick
       萨伊德·塔格马奥 Sa?d Taghmaoui
       杰罗姆·弗林 Jerome Flynn
       杰森·曼兹沃克斯 Jason Mantzoukas
       托拜厄斯·西格尔 Tobias Segal
       博班·马里亚诺维奇 Boban Marjanovic
       罗宾·泰勒 Robin Lord Taylor
       罗比·德拉费勒 Robbie DeRaffele
       费斯·洛根 Faith Logan
       雅彦·鲁伊安 Yayan Ruhian
       兰德尔·杜克·金 Randall Duk Kim
       袁之正 Roger Yuan
       陈虎 Tiger Hu Chen
       安东尼·帕迪利亚 Anthony Padilla
       斯特凡尼娅·马卡洛娃 Stefaniya Makarova
       西尔维奥·西马克 Silvio Simac
       马米·科西科 Marmee Cosico
       罗曼·米蒂齐扬 Roman Mitichyan
       塞塞普·阿里夫·拉赫曼 Cecep Arif Rahman
       安妮·比萨比亚 Annie Pisapia
       约翰·盖蒂尔 John Gettier

◎标  签 行动 | 暴力美学 | 暴力 | 美国 | 犯罪 | 肾上腺素 | 2019 | 杀手
◎简  介  
  约翰·威克履历了前两次的追杀、特攻以后,由于执意破坏酒店规矩,因此遭到悬赏通缉,全球杀手闻风而至、一路追杀。此次他又将若何杀出重围,终结这场流亡之旅。
  1. Video
  2. ID                                       : 1
  3. Format                                   : HEVC
  4. Format/Info                              : High Efficiency Video Coding
  5. Format profile                           : Main [email protected]@High
  6. Codec ID                                 : V_MPEGH/ISO/HEVC
  7. Duration                                 : 2 h 10 min
  8. Bit rate                                 : 13.1 Mb/s
  9. Width                                    : 3 840 pixels
  10. Height                                   : 1 600 pixels
  11. Original height                          : 2 160 pixels
  12. Display aspect ratio                     : 16:9
  13. Frame rate mode                          : Constant
  14. Frame rate                               : 23.976 (23976/1000) FPS
  15. Color space                              : YUV
  16. Chroma subsampling                       : 4:2:0
  17. Bit depth                                : 10 bits
  18. Bits/(Pixel*Frame)                       : 0.089
  19. Stream size                              : 11.9 GiB (95%)
  20. Writing library                          : x265 3.0:[Linux][GCC 4.8.3][64 bit] 10bit
  21. Encoding settings                        : cpuid=1111039 / frame-threads=1 / wpp / no-pmode / no-pme / no-psnr / no-ssim / log-level=2 / input-csp=1 / input-res=3840x2160 / interlace=0 / total-frames=0 / level-idc=50 / high-tier=1 / uhd-bd=0 / ref=4 / no-allow-non-conformance / repeat-headers / annexb / aud / hrd / info / hash=0 / no-temporal-layers / no-open-gop / min-keyint=96 / keyint=96 / gop-lookahead=0 / bframes=8 / b-adapt=2 / b-pyramid / bframe-bias=0 / rc-lookahead=25 / lookahead-slices=1 / scenecut=0 / radl=0 / no-splice / no-intra-refresh / ctu=64 / min-cu-size=8 / rect / no-amp / max-tu-size=32 / tu-inter-depth=1 / tu-intra-depth=1 / limit-tu=0 / rdoq-level=2 / dynamic-rd=0.00 / no-ssim-rd / signhide / no-tskip / nr-intra=100 / nr-inter=400 / no-constrained-intra / strong-intra-smoothing / max-merge=3 / limit-refs=3 / limit-modes / me=3 / subme=3 / merange=57 / temporal-mvp / weightp / no-weightb / no-analyze-src-pics / deblock=-1:-1 / sao / no-sao-non-deblock / rd=4 / no-early-skip / rskip / no-fast-intra / no-tskip-fast / no-cu-lossless / no-b-intra / no-splitrd-skip / rdpenalty=0 / psy-rd=1.00 / psy-rdoq=1.50 / no-rd-refine / no-lossless / cbqpoffs=-2 / crqpoffs=-2 / rc=abr / bitrate=13387 / qcomp=0.60 / qpstep=4 / stats-write=1 / stats-read=2 / cplxblur=20.0 / qblur=0.5 / vbv-maxrate=16064 / vbv-bufsize=40161 / vbv-init=0.7 / ipratio=1.40 / pbratio=1.30 / aq-mode=2 / aq-strength=1.00 / cutree / zone-count=0 / no-strict-cbr / qg-size=32 / no-rc-grain / qpmax=69 / qpmin=0 / no-const-vbv / sar=1 / overscan=0 / videoformat=5 / range=0 / colorprim=2 / transfer=2 / colormatrix=2 / chromaloc=0 / display-window=0 / max-cll=0,0 / min-luma=0 / max-luma=1023 / log2-max-poc-lsb=8 / vui-timing-info / vui-hrd-info / slices=1 / no-opt-qp-pps / no-opt-ref-list-length-pps / no-multi-pass-opt-rps / scenecut-bias=0.05 / no-opt-cu-delta-qp / no-aq-motion / no-hdr / no-hdr-opt / no-dhdr10-opt / no-idr-recovery-sei / analysis-reuse-level=5 / scale-factor=0 / refine-intra=0 / refine-inter=0 / refine-mv=0 / refine-ctu-distortion=0 / no-limit-sao / ctu-info=0 / no-lowpass-dct / refine-analysis-type=0 / copy-pic=1 / max-ausize-factor=1.0 / no-dynamic-refine / no-single-sei / no-hevc-aq / qp-adaptation-range=1.00
  22. Language                                 : English
  23. Default                                  : Yes
  24. Forced                                   : No
  25. Audio
  26. ID                                       : 2
  27. Format                                   : E-AC-3 JOC
  28. Format/Info                              : Enhanced AC-3 with Joint Object Coding
  29. Commercial name                          : Dolby Digital Plus with Dolby Atmos
  30. Codec ID                                 : A_EAC3
  31. Duration                                 : 2 h 10 min
  32. Bit rate mode                            : Constant
  33. Bit rate                                 : 448 kb/s
  34. Channel(s)                               : 6 channels
  35. Channel layout                           : L R C LFE Ls Rs
  36. Sampling rate                            : 48.0 kHz
  37. Frame rate                               : 31.250 FPS (1536 SPF)
  38. Compression mode                         : Lossy
  39. Stream size                              : 419 MiB (3%)
  40. Language                                 : English
  41. Service kind                             : Complete Main
  42. Default                                  : Yes
  43. Forced                                   : No
  44. Complexity index                         : 16
  45. Number of dynamic objects                : 15
  46. Bed channel count                        : 1 channel
  47. Bed channel configuration                : LFE
  48. Text #1
  49. ID                                       : 3
  50. Format                                   : UTF-8
  51. Codec ID                                 : S_TEXT/UTF8
  52. Codec ID/Info                            : UTF-8 Plain Text
  53. Title                                    : English
  54. Language                                 : English
  55. Default                                  : No
  56. Forced                                   : No
  57. Text #2
  58. ID                                       : 4
  59. Format                                   : UTF-8
  60. Codec ID                                 : S_TEXT/UTF8
  61. Codec ID/Info                            : UTF-8 Plain Text
  62. Title                                    : English (SDH)
  63. Language                                 : English
  64. Default                                  : No
  65. Forced                                   : No
复制代码






                                       
                                       

                                       
                                       
                                       




回复

使用道具 举报

懒得打字嘛,点击右侧快捷回复 【右侧内容,后台自定义】
您需要登录后才可以回帖 登录 | 立即加入

本版积分规则

Copyright © 2024 Comsenz Inc. Powered by 蓝光电影网

本站内容由用户自主分享和转载自互联网,转载目的在于传递更多信息,并不代表本网赞同其观点和对其真实性负责。

如有侵权、违反国家法律政策行为,请联系我们,我们会第一时间及时清除和处理!

举报反馈邮箱:4k1080.com@gmail.com

快速回复 返回顶部 返回列表