找回密码

查看: 1266|回复: 0

[2160p] 黑衣人:全球追缉 Men.in.Black.International.2019.INTERNAL.HDR.2160p.WEB.H265-DEFLATE 19.84GB

[复制链接]
蓝光币
1840
发表于 2019-8-21 11:23:48 | 显示全部楼层 |阅读模式


◎译  名 黑衣人:全球追缉 / MIB 23 / MIB 4 / MIB星际战警:跨国行动(台) / Men in Black 4 / Men in Black IV / 黑衣人23 / 黑衣人4 / 黑衣人外传 / 黑衣人:国际保护者 / 黑超特警组:反转天下(港) / 黑超特警队4
◎片  名 Men in Black International
◎年  代 2019
◎产  地 美国
◎类  别 笑剧 / 行动 / 科幻
◎语  言 英语
◎上映日期 2019-06-12(台湾) / 2019-06-14(美国/中国大陆)
◎IMDb评分  5.7/10 from 27642 users
◎IMDb链接  http://www.imdb.com/title/tt2283336
◎豆瓣评分 5.7/10 from 69709 users
◎豆瓣链接 https://movie.douban.com/subject/19971676/
◎片  长 115分钟
◎导  演 F·加里·格雷 F. Gary Gray
◎编  剧 劳威尔·坎宁安  Lowell Cunningham / 马特·霍洛维 Matt Holloway / 阿特·马库姆 Art Marcum
◎主  演 克里斯·海姆斯沃斯 Chris Hemsworth
      泰莎·汤普森 Tessa Thompson
      丽贝卡·弗格森 Rebecca Ferguson
      库梅尔·南贾尼 Kumail Nanjiani
      拉菲·斯波 Rafe Spall
      艾玛·汤普森 Emma Thompson
      连姆·尼森 Liam Neeson
      Davina Sitaram
      纳西尔·贾玛 Nasir Jama
      Viktorija Faith
      Penelope Kapudija
      斯蒂芬·怀特 Stephen Wight
      安纳托·陶布曼 Anatole Taubman
      露丝·霍洛克斯 Ruth Horrocks
      贝恩·科拉科 Bern Colla?o
      马西·哈里尔 Marcy Harriell
      哈廷·帕特尔 Hiten Patel
      通恰伊·古奈什 Tuncay Gunes
      Adrian Alvarado
      史蒂芬·萨姆森 Stephen Samson
      Mandeiya Flory
      黄渤 Bo Huang
      伊隆·马斯克 Elon Musk

◎标  签 科幻 | 外星人 | 美国 | 笑剧 | 奸细 | 2019 | 行动 | 搞笑
◎简  介  
  全球最具影响力的典范科幻IP《黑衣人》周全升级!科幻电影之父史蒂文·斯皮尔伯格联手《速度与豪情8》导演F·加里·格雷,金牌班底大力巨献!英国黑衣人总部王牌捕快H(锤哥)与新晋捕快M(泰莎·汤普森)在阻止外星团伙入侵的进程中意外铲除了隐藏在黑衣人构造中的内奸,成功拯救天下 。
影片中,各类脑洞大开的外星人和倾覆设想的高科技装备轮流退场,热血沸腾惊心动魄的行动追车排场层见叠出,完善构建出全新的黑衣人宇宙观。本片将于2019年6月14日本地同步北美上映。
  1. Video
  2. ID                                       : 1
  3. Format                                   : HEVC
  4. Format/Info                              : High Efficiency Video Coding
  5. Format profile                           : Main [email protected]@High
  6. HDR format                               : SMPTE ST 2086, HDR10 compatible
  7. Codec ID                                 : V_MPEGH/ISO/HEVC
  8. Duration                                 : 1 h 54 min
  9. Bit rate                                 : 23.8 Mb/s
  10. Width                                    : 3 840 pixels
  11. Height                                   : 1 916 pixels
  12. Original height                          : 2 160 pixels
  13. Display aspect ratio                     : 16:9
  14. Frame rate mode                          : Constant
  15. Frame rate                               : 23.976 (24000/1001) FPS
  16. Color space                              : YUV
  17. Chroma subsampling                       : 4:2:0 (Type 2)
  18. Bit depth                                : 10 bits
  19. Bits/(Pixel*Frame)                       : 0.135
  20. Stream size                              : 19.1 GiB (96%)
  21. Language                                 : English
  22. Default                                  : Yes
  23. Forced                                   : No
  24. Color range                              : Limited
  25. Color primaries                          : BT.2020
  26. Transfer characteristics                 : PQ
  27. Matrix coefficients                      : BT.2020 non-constant
  28. Mastering display color primaries        : Display P3
  29. Mastering display luminance              : min: 0.0050 cd/m2, max: 4000 cd/m2
  30. Maximum Content Light Level              : 9008 cd/m2
  31. Maximum Frame-Average Light Level        : 942 cd/m2
  32. Audio
  33. ID                                       : 2
  34. Format                                   : E-AC-3 JOC
  35. Format/Info                              : Enhanced AC-3 with Joint Object Coding
  36. Commercial name                          : Dolby Digital Plus with Dolby Atmos
  37. Codec ID                                 : A_EAC3
  38. Duration                                 : 1 h 54 min
  39. Bit rate mode                            : Constant
  40. Bit rate                                 : 448 kb/s
  41. Channel(s)                               : 6 channels
  42. Channel layout                           : L R C LFE Ls Rs
  43. Sampling rate                            : 48.0 kHz
  44. Frame rate                               : 31.250 FPS (1536 SPF)
  45. Compression mode                         : Lossy
  46. Delay relative to video                  : 1 s 43 ms
  47. Stream size                              : 368 MiB (2%)
  48. Language                                 : English
  49. Service kind                             : Complete Main
  50. Default                                  : Yes
  51. Forced                                   : No
  52. Complexity index                         : 16
  53. Number of dynamic objects                : 15
  54. Bed channel count                        : 1 channel
  55. Bed channel configuration                : LFE
  56. Text #1
  57. ID                                       : 3
  58. Format                                   : UTF-8
  59. Codec ID                                 : S_TEXT/UTF8
  60. Codec ID/Info                            : UTF-8 Plain Text
  61. Title                                    : English
  62. Language                                 : English
  63. Default                                  : No
  64. Forced                                   : No
  65. Text #2
  66. ID                                       : 4
  67. Format                                   : UTF-8
  68. Codec ID                                 : S_TEXT/UTF8
  69. Codec ID/Info                            : UTF-8 Plain Text
  70. Title                                    : English (SDH)
  71. Language                                 : English
  72. Default                                  : No
  73. Forced                                   : No
  74. Menu
  75. 00:00:00.000                             : en:1
  76. 00:07:57.000                             : en:2
  77. 00:15:31.000                             : en:3
  78. 00:20:07.000                             : en:4
  79. 00:27:14.000                             : en:5
  80. 00:34:26.000                             : en:6
  81. 00:46:06.000                             : en:7
  82. 00:50:28.000                             : en:8
  83. 00:58:56.000                             : en:9
  84. 01:03:08.000                             : en:10
  85. 01:10:46.000                             : en:11
  86. 01:14:30.000                             : en:12
  87. 01:25:25.000                             : en:13
  88. 01:28:43.000                             : en:14
  89. 01:34:22.000                             : en:15
  90. 01:43:24.000                             : en:16
复制代码






                                       
                                       

                                       
                                       
                                       




回复

使用道具 举报

懒得打字嘛,点击右侧快捷回复 【右侧内容,后台自定义】
您需要登录后才可以回帖 登录 | 立即加入

本版积分规则

Copyright © 2024 Comsenz Inc. Powered by 蓝光电影网

本站内容由用户自主分享和转载自互联网,转载目的在于传递更多信息,并不代表本网赞同其观点和对其真实性负责。

如有侵权、违反国家法律政策行为,请联系我们,我们会第一时间及时清除和处理!

举报反馈邮箱:4k1080.com@gmail.com

快速回复 返回顶部 返回列表