找回密码

查看: 1580|回复: 0

[UHD.HEVC] 钢铁侠3/钢铁人3 Iron.Man.3.2013.2160p.US.BluRay.REMUX.HEVC.DTS-HD.MA.TrueHD.7.1.Atmos-FGT 55.40GB

[复制链接]
蓝光币
1840
发表于 2019-8-10 05:12:23 | 显示全部楼层 |阅读模式
[img]https://img1.doubanio.com/view/photo/l_ratio_poster/public/p1955027201.jpg[img]
◎译  名 钢铁侠3 / 钢铁人3(台) / 铁人3 / 铁甲奇侠3(港)
◎片  名 Iron Man 3
◎年  代 2013
◎产  地 美国 / 中国大陆
◎类  别 行动 / 科幻
◎语  言 英语 / 汉语普通话
◎上映日期 2013-04-18(伦敦首映) / 2013-05-01(中国大陆) / 2013-05-03(美国)
◎IMDb评分  7.2/10 from 700775 users
◎IMDb链接  http://www.imdb.com/title/tt1300854
◎豆瓣评分 7.8/10 from 331644 users
◎豆瓣链接 https://movie.douban.com/subject/3231742/
◎片  长 134分钟(中国大陆)
◎导  演 沙恩·布莱克 Shane Black
◎编  剧 沙恩·布莱克 Shane Black / 德鲁·皮尔斯 Drew Pearce / 斯坦·李 Stan Lee / 唐·赫克 Don Heck / 拉里·利伯 Larry Lieber / 杰克·科比 Jack Kirby
◎主  演 小罗伯特·唐尼 Robert Downey Jr.
       盖·皮尔斯 Guy Pearce
       格温妮斯·帕特洛 Gwyneth Paltrow
       本·金斯利 Ben Kingsley
       唐·钱德尔 Don Cheadle
       保罗·贝坦尼 Paul Bettany
       丽贝卡·豪尔 Rebecca Hall
       乔恩·费儒 Jon Favreau
       威廉姆·赛德勒 William Sadler
       詹姆斯·戴尔 James Badge Dale
       伊芳·齐玛 Yvonne Zima
       泰·辛普金斯 Ty Simpkins
       阿什利·汉弥尔顿 Ashley Hamilton
       王学圻 Xueqi Wang
       范冰冰 Bingbing Fan

◎标  签 科幻 | 钢铁侠 | 美国 | 超级豪杰 | 行动 | MARVEL | 2013 | 漫画改编
◎简  介  
  自纽约事务以来,托尼·斯塔克(小罗伯特·唐尼 Robert Downey Jr. 饰)为史无前例的焦虑症所困扰。他疯狂投入钢铁侠升级版的研发,为此夜以继日,甚至疏忽了女友佩珀·波茨(格温妮斯·帕特洛 Gwyneth Paltrow 饰)的感受。与此同时,污名昭著的可骇头子曼达林(本·金斯利 Ben Kingsley 饰)制造了连续串的爆炸攻击事务,托尼昔时最虔诚的保镳即在比来的一次攻击中身负重伤。未过量久,托尼、佩珀以及曾与他有过一面之缘的女动物学家玛雅(丽贝卡·豪尔 Rebecca Hall 饰)在家中遭到狠恶的炮火攻击,几近丧命,而这一切似乎都与22年前那名偶然相逢的科学家阿尔德里奇·基连(盖·皮尔斯 Guy Pearce 饰)及其终极生物的研讨有关。
  即使有紧密先辈的铠甲护身,也没法排解发自心底的焦虑。被击碎一切的托尼,若何穿越来自天堂的熊熊猛火……
◎获奖情况  
  第86届奥斯卡金像奖(2014)
  最好视觉结果(提名) 盖伊·威廉斯 / 克里斯托弗·汤森 / Erik Nash / 丹尼尔·萨迪克
  第23届MTV电影奖(2014)
  MTV电影奖 最好客串表演(提名) 琼·里弗斯
  MTV电影奖 最好豪杰形象(提名) 小罗伯特·唐尼
  第61届美国音效剪辑协会奖(2014)
  金卷轴奖 最好电影音效剪辑(提名) John T. Cucci / Charlie Campagna / 丹·奥康奈尔 / Tim Walston / Alan Rankin / Karen Vassar / 安德鲁·克里斯托法罗 / Ann Scibelli / Shannon Mills / 马克·P·施特金格尔
  第12届美国视觉结果协会奖(2014)
  最好殊效电影视觉结果(提名) 布莱恩·吉尔 / 盖伊·威廉斯 / Mark G. Soper / 克里斯托弗·汤森
  最好真人电影CG布景(提名) John Stevenson-Galvin
  最好电影虚拟摄影(提名) Thelvin Cabezas
  最好电影视觉结果分解(提名) Justin van der Lek / Stefano Trivelli
  第50届美国声音结果协会奖(2014)
  真人电影最好音效(提名) Joel Iwataki / Mike Prestwood Smith / Michael Keller
  第19届美国批评家挑选电影奖(2014)
  最好行动片(提名)
  行动片最好男配角(提名) 小罗伯特·唐尼
  行动片最好女配角(提名) 格温妮斯·帕特洛
  最好视觉结果(提名)
  第17届好莱坞电影奖(2013)
  年度电影(提名) 沙恩·布莱克
  第15届美国青少年挑选奖(2013)
  最好行动片
  最好行动片男演员 小罗伯特·唐尼
  最好行动片女演员(提名) 格温妮斯·帕特洛
  最好科幻/奇异电影(提名)
  最好科幻/奇异电影男演员(提名) 小罗伯特·唐尼
  最好科幻/奇异电影女演员(提名) 格温妮斯·帕特洛
  最好电影反派(提名) 本·金斯利
  最好银幕拍档(提名) 小罗伯特·唐尼 / 唐·钱德尔
  第4届豆瓣电影鑫像奖(2014)
  鑫豆单元 最好科幻/行动片(提名)
  1. Video
  2. ID                                       : 1
  3. Format                                   : HEVC
  4. Format/Info                              : High Efficiency Video Coding
  5. Format profile                           : Main [email protected]@High
  6. HDR format                               : SMPTE ST 2086, HDR10 compatible
  7. Codec ID                                 : V_MPEGH/ISO/HEVC
  8. Duration                                 : 2 h 10 min
  9. Bit rate                                 : 44.1 Mb/s
  10. Width                                    : 3 840 pixels
  11. Height                                   : 2 160 pixels
  12. Display aspect ratio                     : 16:9
  13. Frame rate mode                          : Constant
  14. Frame rate                               : 23.976 (24000/1001) FPS
  15. Color space                              : YUV
  16. Chroma subsampling                       : 4:2:0 (Type 2)
  17. Bit depth                                : 10 bits
  18. Bits/(Pixel*Frame)                       : 0.222
  19. Stream size                              : 40.2 GiB (73%)
  20. Title                                    : Iron.Man.3.2013.2160p.US.BluRay.REMUX.HEVC.DTS-HD.MA.TrueHD.7.1.Atmos-FGT
  21. Language                                 : English
  22. Default                                  : No
  23. Forced                                   : No
  24. Color range                              : Limited
  25. Color primaries                          : BT.2020
  26. Transfer characteristics                 : PQ
  27. Matrix coefficients                      : BT.2020 non-constant
  28. Mastering display color primaries        : Display P3
  29. Mastering display luminance              : min: 0.0050 cd/m2, max: 4000 cd/m2
  30. Maximum Content Light Level              : 572 cd/m2
  31. Maximum Frame-Average Light Level        : 565 cd/m2
  32. Audio #1
  33. ID                                       : 2
  34. Format                                   : MLP FBA 16-ch
  35. Format/Info                              : Meridian Lossless Packing FBA with 16-channel presentation
  36. Commercial name                          : Dolby TrueHD with Dolby Atmos
  37. Codec ID                                 : A_TRUEHD
  38. Duration                                 : 2 h 10 min
  39. Bit rate mode                            : Variable
  40. Bit rate                                 : 4 826 kb/s
  41. Maximum bit rate                         : 7 887 kb/s
  42. Channel(s)                               : 8 channels
  43. Channel layout                           : L R C LFE Ls Rs Lb Rb
  44. Sampling rate                            : 48.0 kHz
  45. Frame rate                               : 1 200.000 FPS (40 SPF)
  46. Compression mode                         : Lossless
  47. Stream size                              : 4.40 GiB (8%)
  48. Title                                    : Iron.Man.3.2013.2160p.US.BluRay.REMUX.HEVC.DTS-HD.MA.TrueHD.7.1.Atmos-FGT
  49. Language                                 : English
  50. Default                                  : Yes
  51. Forced                                   : No
  52. Number of dynamic objects                : 13
  53. Bed channel count                        : 1 channel
  54. Bed channel configuration                : LFE
  55. Audio #2
  56. ID                                       : 3
  57. Format                                   : DTS XLL
  58. Format/Info                              : Digital Theater Systems
  59. Commercial name                          : DTS-HD Master Audio
  60. Codec ID                                 : A_DTS
  61. Duration                                 : 2 h 10 min
  62. Bit rate mode                            : Variable
  63. Bit rate                                 : 3 597 kb/s
  64. Channel(s)                               : 8 channels
  65. Channel layout                           : C L R LFE Lb Rb Lss Rss
  66. Sampling rate                            : 48.0 kHz
  67. Frame rate                               : 93.750 FPS (512 SPF)
  68. Bit depth                                : 24 bits
  69. Compression mode                         : Lossless
  70. Stream size                              : 3.28 GiB (6%)
  71. Title                                    : Iron.Man.3.2013.2160p.US.BluRay.REMUX.HEVC.DTS-HD.MA.TrueHD.7.1.Atmos-FGT
  72. Language                                 : English
  73. Default                                  : No
  74. Forced                                   : No
  75. Audio #3
  76. ID                                       : 4
  77. Format                                   : AC-3
  78. Format/Info                              : Audio Coding 3
  79. Commercial name                          : Dolby Digital
  80. Codec ID                                 : A_AC3
  81. Duration                                 : 2 h 10 min
  82. Bit rate mode                            : Constant
  83. Bit rate                                 : 640 kb/s
  84. Channel(s)                               : 6 channels
  85. Channel layout                           : L R C LFE Ls Rs
  86. Sampling rate                            : 48.0 kHz
  87. Frame rate                               : 31.250 FPS (1536 SPF)
  88. Bit depth                                : 16 bits
  89. Compression mode                         : Lossy
  90. Stream size                              : 597 MiB (1%)
  91. Title                                    : Iron.Man.3.2013.2160p.US.BluRay.REMUX.HEVC.DTS-HD.MA.TrueHD.7.1.Atmos-FGT
  92. Language                                 : English
  93. Service kind                             : Complete Main
  94. Default                                  : No
  95. Forced                                   : No
  96. Audio #4
  97. ID                                       : 5
  98. Format                                   : AC-3
  99. Format/Info                              : Audio Coding 3
  100. Commercial name                          : Dolby Digital
  101. Codec ID                                 : A_AC3
  102. Duration                                 : 2 h 10 min
  103. Bit rate mode                            : Constant
  104. Bit rate                                 : 320 kb/s
  105. Channel(s)                               : 2 channels
  106. Channel layout                           : L R
  107. Sampling rate                            : 48.0 kHz
  108. Frame rate                               : 31.250 FPS (1536 SPF)
  109. Bit depth                                : 16 bits
  110. Compression mode                         : Lossy
  111. Stream size                              : 299 MiB (1%)
  112. Title                                    : Iron.Man.3.2013.2160p.US.BluRay.REMUX.HEVC.DTS-HD.MA.TrueHD.7.1.Atmos-FGT
  113. Language                                 : English
  114. Service kind                             : Complete Main
  115. Default                                  : No
  116. Forced                                   : No
  117. Audio #5
  118. ID                                       : 6
  119. Format                                   : AC-3
  120. Format/Info                              : Audio Coding 3
  121. Commercial name                          : Dolby Digital
  122. Codec ID                                 : A_AC3
  123. Duration                                 : 2 h 10 min
  124. Bit rate mode                            : Constant
  125. Bit rate                                 : 640 kb/s
  126. Channel(s)                               : 6 channels
  127. Channel layout                           : L R C LFE Ls Rs
  128. Sampling rate                            : 48.0 kHz
  129. Frame rate                               : 31.250 FPS (1536 SPF)
  130. Bit depth                                : 16 bits
  131. Compression mode                         : Lossy
  132. Stream size                              : 597 MiB (1%)
  133. Title                                    : Iron.Man.3.2013.2160p.US.BluRay.REMUX.HEVC.DTS-HD.MA.TrueHD.7.1.Atmos-FGT
  134. Language                                 : French
  135. Service kind                             : Complete Main
  136. Default                                  : No
  137. Forced                                   : No
  138. Audio #6
  139. ID                                       : 7
  140. Format                                   : E-AC-3
  141. Format/Info                              : Enhanced AC-3
  142. Commercial name                          : Dolby Digital Plus
  143. Format profile                           : Blu-ray Disc
  144. Codec ID                                 : A_EAC3
  145. Duration                                 : 2 h 10 min
  146. Bit rate mode                            : Constant
  147. Bit rate                                 : 1 024 kb/s
  148. Channel(s)                               : 8 channels
  149. Channel layout                           : L R C LFE Ls Rs Lb Rb
  150. Sampling rate                            : 48.0 kHz
  151. Frame rate                               : 31.250 FPS (1536 SPF)
  152. Compression mode                         : Lossy
  153. Stream size                              : 956 MiB (2%)
  154. Title                                    : Iron.Man.3.2013.2160p.US.BluRay.REMUX.HEVC.DTS-HD.MA.TrueHD.7.1.Atmos-FGT
  155. Language                                 : French
  156. Service kind                             : Complete Main
  157. Default                                  : No
  158. Forced                                   : No
  159. Audio #7
  160. ID                                       : 8
  161. Format                                   : AC-3
  162. Format/Info                              : Audio Coding 3
  163. Commercial name                          : Dolby Digital
  164. Codec ID                                 : A_AC3
  165. Duration                                 : 2 h 10 min
  166. Bit rate mode                            : Constant
  167. Bit rate                                 : 576 kb/s
  168. Channel(s)                               : 6 channels
  169. Channel layout                           : L R C LFE Ls Rs
  170. Sampling rate                            : 48.0 kHz
  171. Frame rate                               : 31.250 FPS (1536 SPF)
  172. Bit depth                                : 16 bits
  173. Compression mode                         : Lossy
  174. Stream size                              : 538 MiB (1%)
  175. Title                                    : Iron.Man.3.2013.2160p.US.BluRay.REMUX.HEVC.DTS-HD.MA.TrueHD.7.1.Atmos-FGT
  176. Language                                 : French
  177. Service kind                             : Complete Main
  178. Default                                  : No
  179. Forced                                   : No
  180. Audio #8
  181. ID                                       : 9
  182. Format                                   : E-AC-3
  183. Format/Info                              : Enhanced AC-3
  184. Commercial name                          : Dolby Digital Plus
  185. Format profile                           : Blu-ray Disc
  186. Codec ID                                 : A_EAC3
  187. Duration                                 : 2 h 10 min
  188. Bit rate mode                            : Constant
  189. Bit rate                                 : 1 024 kb/s
  190. Channel(s)                               : 8 channels
  191. Channel layout                           : L R C LFE Ls Rs Lb Rb
  192. Sampling rate                            : 48.0 kHz
  193. Frame rate                               : 31.250 FPS (1536 SPF)
  194. Compression mode                         : Lossy
  195. Stream size                              : 956 MiB (2%)
  196. Title                                    : Iron.Man.3.2013.2160p.US.BluRay.REMUX.HEVC.DTS-HD.MA.TrueHD.7.1.Atmos-FGT
  197. Language                                 : Spanish
  198. Service kind                             : Complete Main
  199. Default                                  : No
  200. Forced                                   : No
  201. Audio #9
  202. ID                                       : 10
  203. Format                                   : AC-3
  204. Format/Info                              : Audio Coding 3
  205. Commercial name                          : Dolby Digital
  206. Codec ID                                 : A_AC3
  207. Duration                                 : 2 h 10 min
  208. Bit rate mode                            : Constant
  209. Bit rate                                 : 576 kb/s
  210. Channel(s)                               : 6 channels
  211. Channel layout                           : L R C LFE Ls Rs
  212. Sampling rate                            : 48.0 kHz
  213. Frame rate                               : 31.250 FPS (1536 SPF)
  214. Bit depth                                : 16 bits
  215. Compression mode                         : Lossy
  216. Stream size                              : 538 MiB (1%)
  217. Title                                    : Iron.Man.3.2013.2160p.US.BluRay.REMUX.HEVC.DTS-HD.MA.TrueHD.7.1.Atmos-FGT
  218. Language                                 : Spanish
  219. Service kind                             : Complete Main
  220. Default                                  : No
  221. Forced                                   : No
  222. Audio #10
  223. ID                                       : 11
  224. Format                                   : E-AC-3
  225. Format/Info                              : Enhanced AC-3
  226. Commercial name                          : Dolby Digital Plus
  227. Format profile                           : Blu-ray Disc
  228. Codec ID                                 : A_EAC3
  229. Duration                                 : 2 h 10 min
  230. Bit rate mode                            : Constant
  231. Bit rate                                 : 1 024 kb/s
  232. Channel(s)                               : 8 channels
  233. Channel layout                           : L R C LFE Ls Rs Lb Rb
  234. Sampling rate                            : 48.0 kHz
  235. Frame rate                               : 31.250 FPS (1536 SPF)
  236. Compression mode                         : Lossy
  237. Stream size                              : 956 MiB (2%)
  238. Title                                    : Iron.Man.3.2013.2160p.US.BluRay.REMUX.HEVC.DTS-HD.MA.TrueHD.7.1.Atmos-FGT
  239. Language                                 : Italian
  240. Service kind                             : Complete Main
  241. Default                                  : No
  242. Forced                                   : No
  243. Audio #11
  244. ID                                       : 12
  245. Format                                   : AC-3
  246. Format/Info                              : Audio Coding 3
  247. Commercial name                          : Dolby Digital
  248. Codec ID                                 : A_AC3
  249. Duration                                 : 2 h 10 min
  250. Bit rate mode                            : Constant
  251. Bit rate                                 : 576 kb/s
  252. Channel(s)                               : 6 channels
  253. Channel layout                           : L R C LFE Ls Rs
  254. Sampling rate                            : 48.0 kHz
  255. Frame rate                               : 31.250 FPS (1536 SPF)
  256. Bit depth                                : 16 bits
  257. Compression mode                         : Lossy
  258. Stream size                              : 538 MiB (1%)
  259. Title                                    : Iron.Man.3.2013.2160p.US.BluRay.REMUX.HEVC.DTS-HD.MA.TrueHD.7.1.Atmos-FGT
  260. Language                                 : Italian
  261. Service kind                             : Complete Main
  262. Default                                  : No
  263. Forced                                   : No
  264. Audio #12
  265. ID                                       : 13
  266. Format                                   : E-AC-3
  267. Format/Info                              : Enhanced AC-3
  268. Commercial name                          : Dolby Digital Plus
  269. Format profile                           : Blu-ray Disc
  270. Codec ID                                 : A_EAC3
  271. Duration                                 : 2 h 10 min
  272. Bit rate mode                            : Constant
  273. Bit rate                                 : 1 024 kb/s
  274. Channel(s)                               : 8 channels
  275. Channel layout                           : L R C LFE Ls Rs Lb Rb
  276. Sampling rate                            : 48.0 kHz
  277. Frame rate                               : 31.250 FPS (1536 SPF)
  278. Compression mode                         : Lossy
  279. Stream size                              : 956 MiB (2%)
  280. Title                                    : Iron.Man.3.2013.2160p.US.BluRay.REMUX.HEVC.DTS-HD.MA.TrueHD.7.1.Atmos-FGT
  281. Language                                 : Japanese
  282. Service kind                             : Complete Main
  283. Default                                  : No
  284. Forced                                   : No
  285. Audio #13
  286. ID                                       : 14
  287. Format                                   : AC-3
  288. Format/Info                              : Audio Coding 3
  289. Commercial name                          : Dolby Digital
  290. Codec ID                                 : A_AC3
  291. Duration                                 : 2 h 10 min
  292. Bit rate mode                            : Constant
  293. Bit rate                                 : 576 kb/s
  294. Channel(s)                               : 6 channels
  295. Channel layout                           : L R C LFE Ls Rs
  296. Sampling rate                            : 48.0 kHz
  297. Frame rate                               : 31.250 FPS (1536 SPF)
  298. Bit depth                                : 16 bits
  299. Compression mode                         : Lossy
  300. Stream size                              : 538 MiB (1%)
  301. Title                                    : Iron.Man.3.2013.2160p.US.BluRay.REMUX.HEVC.DTS-HD.MA.TrueHD.7.1.Atmos-FGT
  302. Language                                 : Japanese
  303. Service kind                             : Complete Main
  304. Default                                  : No
  305. Forced                                   : No
  306. Text #1
  307. ID                                       : 15
  308. Format                                   : UTF-8
  309. Codec ID                                 : S_TEXT/UTF8
  310. Codec ID/Info                            : UTF-8 Plain Text
  311. Duration                                 : 2 h 10 min
  312. Bit rate                                 : 58 b/s
  313. Count of elements                        : 1733
  314. Stream size                              : 56.0 KiB (0%)
  315. Title                                    : English-SRT
  316. Language                                 : English
  317. Default                                  : Yes
  318. Forced                                   : No
  319. Text #2
  320. ID                                       : 16
  321. Format                                   : PGS
  322. Muxing mode                              : zlib
  323. Codec ID                                 : S_HDMV/PGS
  324. Codec ID/Info                            : Picture based subtitle format used on BDs/HD-DVDs
  325. Duration                                 : 2 h 10 min
  326. Bit rate                                 : 53.2 kb/s
  327. Count of elements                        : 4336
  328. Stream size                              : 49.4 MiB (0%)
  329. Title                                    : English-PGS
  330. Language                                 : English
  331. Default                                  : No
  332. Forced                                   : No
  333. Text #3
  334. ID                                       : 17
  335. Format                                   : PGS
  336. Muxing mode                              : zlib
  337. Codec ID                                 : S_HDMV/PGS
  338. Codec ID/Info                            : Picture based subtitle format used on BDs/HD-DVDs
  339. Duration                                 : 2 h 10 min
  340. Bit rate                                 : 42.6 kb/s
  341. Count of elements                        : 3544
  342. Stream size                              : 39.7 MiB (0%)
  343. Title                                    : French-PGS
  344. Language                                 : French
  345. Default                                  : No
  346. Forced                                   : No
  347. Text #4
  348. ID                                       : 18
  349. Format                                   : PGS
  350. Muxing mode                              : zlib
  351. Codec ID                                 : S_HDMV/PGS
  352. Codec ID/Info                            : Picture based subtitle format used on BDs/HD-DVDs
  353. Duration                                 : 2 h 10 min
  354. Bit rate                                 : 34.3 kb/s
  355. Count of elements                        : 3414
  356. Stream size                              : 31.9 MiB (0%)
  357. Title                                    : French-PGS
  358. Language                                 : French
  359. Default                                  : No
  360. Forced                                   : No
  361. Text #5
  362. ID                                       : 19
  363. Format                                   : PGS
  364. Muxing mode                              : zlib
  365. Codec ID                                 : S_HDMV/PGS
  366. Codec ID/Info                            : Picture based subtitle format used on BDs/HD-DVDs
  367. Duration                                 : 2 h 10 min
  368. Bit rate                                 : 43.6 kb/s
  369. Count of elements                        : 3458
  370. Stream size                              : 40.7 MiB (0%)
  371. Title                                    : Spanish-PGS
  372. Language                                 : Spanish
  373. Default                                  : No
  374. Forced                                   : No
  375. Text #6
  376. ID                                       : 20
  377. Format                                   : PGS
  378. Muxing mode                              : zlib
  379. Codec ID                                 : S_HDMV/PGS
  380. Codec ID/Info                            : Picture based subtitle format used on BDs/HD-DVDs
  381. Duration                                 : 2 h 10 min
  382. Bit rate                                 : 41.5 kb/s
  383. Count of elements                        : 3448
  384. Stream size                              : 38.7 MiB (0%)
  385. Title                                    : Italian-PGS
  386. Language                                 : Italian
  387. Default                                  : No
  388. Forced                                   : No
  389. Text #7
  390. ID                                       : 21
  391. Format                                   : PGS
  392. Muxing mode                              : zlib
  393. Codec ID                                 : S_HDMV/PGS
  394. Codec ID/Info                            : Picture based subtitle format used on BDs/HD-DVDs
  395. Duration                                 : 2 h 10 min
  396. Bit rate                                 : 20.0 kb/s
  397. Count of elements                        : 2892
  398. Stream size                              : 18.7 MiB (0%)
  399. Title                                    : Japanese-PGS
  400. Language                                 : Japanese
  401. Default                                  : No
  402. Forced                                   : No
  403. Text #8
  404. ID                                       : 22
  405. Format                                   : PGS
  406. Muxing mode                              : zlib
  407. Codec ID                                 : S_HDMV/PGS
  408. Codec ID/Info                            : Picture based subtitle format used on BDs/HD-DVDs
  409. Duration                                 : 2 h 10 min
  410. Bit rate                                 : 38.9 kb/s
  411. Count of elements                        : 3454
  412. Stream size                              : 36.3 MiB (0%)
  413. Title                                    : Norwegian-PGS
  414. Language                                 : Norwegian
  415. Default                                  : No
  416. Forced                                   : No
  417. Text #9
  418. ID                                       : 23
  419. Format                                   : PGS
  420. Muxing mode                              : zlib
  421. Codec ID                                 : S_HDMV/PGS
  422. Codec ID/Info                            : Picture based subtitle format used on BDs/HD-DVDs
  423. Duration                                 : 2 h 10 min
  424. Bit rate                                 : 30.9 kb/s
  425. Count of elements                        : 2098
  426. Stream size                              : 28.8 MiB (0%)
  427. Title                                    : Swedish-PGS
  428. Language                                 : Swedish
  429. Default                                  : No
  430. Forced                                   : No
  431. Text #10
  432. ID                                       : 24
  433. Format                                   : PGS
  434. Muxing mode                              : zlib
  435. Codec ID                                 : S_HDMV/PGS
  436. Codec ID/Info                            : Picture based subtitle format used on BDs/HD-DVDs
  437. Duration                                 : 1 h 8 min
  438. Bit rate                                 : 85 b/s
  439. Count of elements                        : 4
  440. Stream size                              : 42.5 KiB (0%)
  441. Title                                    : French-FORCED-PGS
  442. Language                                 : French
  443. Default                                  : No
  444. Forced                                   : No
  445. Text #11
  446. ID                                       : 25
  447. Format                                   : PGS
  448. Muxing mode                              : zlib
  449. Codec ID                                 : S_HDMV/PGS
  450. Codec ID/Info                            : Picture based subtitle format used on BDs/HD-DVDs
  451. Duration                                 : 2 h 9 min
  452. Bit rate                                 : 97 b/s
  453. Count of elements                        : 10
  454. Stream size                              : 92.6 KiB (0%)
  455. Title                                    : French-FORCED-PGS
  456. Language                                 : French
  457. Default                                  : No
  458. Forced                                   : No
  459. Text #12
  460. ID                                       : 26
  461. Format                                   : PGS
  462. Muxing mode                              : zlib
  463. Codec ID                                 : S_HDMV/PGS
  464. Codec ID/Info                            : Picture based subtitle format used on BDs/HD-DVDs
  465. Duration                                 : 2 h 1 min
  466. Bit rate                                 : 87 b/s
  467. Count of elements                        : 8
  468. Stream size                              : 77.4 KiB (0%)
  469. Title                                    : Spanish-FORCED-PGS
  470. Language                                 : Spanish
  471. Default                                  : No
  472. Forced                                   : No
  473. Text #13
  474. ID                                       : 27
  475. Format                                   : PGS
  476. Muxing mode                              : zlib
  477. Codec ID                                 : S_HDMV/PGS
  478. Codec ID/Info                            : Picture based subtitle format used on BDs/HD-DVDs
  479. Duration                                 : 4 min 3 s
  480. Bit rate                                 : 1 290 b/s
  481. Count of elements                        : 6
  482. Stream size                              : 38.3 KiB (0%)
  483. Title                                    : Italian-FORCED-PGS
  484. Language                                 : Italian
  485. Default                                  : No
  486. Forced                                   : No
  487. Text #14
  488. ID                                       : 28
  489. Format                                   : PGS
  490. Muxing mode                              : zlib
  491. Codec ID                                 : S_HDMV/PGS
  492. Codec ID/Info                            : Picture based subtitle format used on BDs/HD-DVDs
  493. Duration                                 : 2 h 9 min
  494. Bit rate                                 : 89 b/s
  495. Count of elements                        : 12
  496. Stream size                              : 85.2 KiB (0%)
  497. Title                                    : Japanese-FORCED-PGS
  498. Language                                 : Japanese
  499. Default                                  : No
  500. Forced                                   : No
  501. Menu
  502. 00:00:00.000                             : en:Chapter 01
  503. 00:04:52.500                             : en:Chapter 02
  504. 00:07:55.308                             : en:Chapter 03
  505. 00:12:12.773                             : en:Chapter 04
  506. 00:19:04.101                             : en:Chapter 05
  507. 00:23:47.884                             : en:Chapter 06
  508. 00:29:47.452                             : en:Chapter 07
  509. 00:39:46.092                             : en:Chapter 08
  510. 00:45:56.044                             : en:Chapter 09
  511. 00:59:19.639                             : en:Chapter 10
  512. 01:01:56.671                             : en:Chapter 11
  513. 01:09:24.118                             : en:Chapter 12
  514. 01:18:41.842                             : en:Chapter 13
  515. 01:23:52.944                             : en:Chapter 14
  516. 01:37:55.619                             : en:Chapter 15
  517. 01:56:18.680                             : en:Chapter 16
  518. 01:59:38.921                             : en:Chapter 17
复制代码






                                       
                                       

                                       
                                       
                                       




回复

使用道具 举报

懒得打字嘛,点击右侧快捷回复 【右侧内容,后台自定义】
您需要登录后才可以回帖 登录 | 立即加入

本版积分规则

Copyright © 2024 Comsenz Inc. Powered by 蓝光电影网

本站内容由用户自主分享和转载自互联网,转载目的在于传递更多信息,并不代表本网赞同其观点和对其真实性负责。

如有侵权、违反国家法律政策行为,请联系我们,我们会第一时间及时清除和处理!

举报反馈邮箱:4k1080.com@gmail.com

快速回复 返回顶部 返回列表