找回密码

查看: 1162|回复: 0

[2160p] 火箭人/摇滚太空人 Rocketman.2019.2160p.BluRay.x264.8bit.SDR.DTS-HD.MA.TrueHD.7.1.Atmos-SWTYBLZ 26.61GB

[复制链接]
蓝光币
1848
发表于 2019-8-20 03:43:01 | 显示全部楼层 |阅读模式


◎译  名 火箭人 / 摇滚太空人(港) / 火箭客
◎片  名 Rocketman
◎年  代 2019
◎产  地 英国 / 美国
◎类  别 剧情 / 音乐 / 列传
◎语  言 英语
◎上映日期 2019-05-16(戛纳电影节) / 2019-05-22(英国) / 2019-05-31(美国)
◎IMDb评分  7.7/10 from 40740 users
◎IMDb链接  http://www.imdb.com/title/tt2066051
◎豆瓣评分 7.4/10 from 1546 users
◎豆瓣链接 https://movie.douban.com/subject/6895950/
◎片  长 121分钟
◎导  演 德克斯特·弗莱彻 Dexter Fletcher
◎编  剧 李·哈尔 Lee Hall
◎主  演 塔伦·埃格顿 Taron Egerton
      理查德·麦登 Richard Madden
      杰米·贝尔 Jamie Bell
      布莱丝·达拉斯·霍华德 Bryce Dallas Howard
      斯蒂文·麦金托什 Steven Mackintosh
      查理·罗 Charlie Rowe
      哈丽特·瓦尔特 Harriet Walter
      维克托里娅·菲斯 Viktorija Faith
      杰玛·琼斯 Gemma Jones
      汤姆·班尼特 Tom Bennett
      朱利安·费罗 Julian Ferro
      莱顿·威廉姆斯 Layton Williams
      基特·康纳 Kit Connor
      卡米尔·雷米泽斯基 Kamil Lemieszewski
      贝恩·科拉科 Bern Colla?o
      齐亚德·阿巴扎 Ziad Abaza
      伊斯雷尔·鲁兹 Israel Ruiz
      拉斯科·阿特金斯 Lasco Atkins
      格雷厄姆·弗莱彻-库克 Graham Fletcher-Cook
      史蒂威·戴维斯 Stevee Davies

◎标  签 列传 | 音乐 | 2019 | 英国 | 美国 | 剧情 | LGBT | 歌舞
◎简  介  
  由《奔腾奇蹟》导演戴克斯特佛莱契执导,《火箭人》是论述英国国宝级歌手艾尔顿强爵士的故事,若何从英国皇家音乐学院的奇才,酿成了风行音乐界的天王,现今乐坛的传奇人物。片名取自艾尔顿强典范名曲〈ROCKETMAN〉,泰隆艾格顿应战富丽多变、大胆前卫的舞台外型,以及一边弹钢琴一边大展爆发力的歌喉,唱出一首首观众耳熟能详的动听歌曲,绝对是不能错过的音乐奇想电影。
  1. Video
  2. ID                                       : 1
  3. Format                                   : AVC
  4. Format/Info                              : Advanced Video Codec
  5. Format profile                           : [email protected]
  6. Format settings                          : CABAC / 5 Ref Frames
  7. Format settings, CABAC                   : Yes
  8. Format settings, Reference frames        : 5 frames
  9. Codec ID                                 : V_MPEG4/ISO/AVC
  10. Duration                                 : 2 h 1 min
  11. Bit rate                                 : 21.7 Mb/s
  12. Width                                    : 3 840 pixels
  13. Height                                   : 1 606 pixels
  14. Display aspect ratio                     : 2.40:1
  15. Frame rate mode                          : Constant
  16. Frame rate                               : 23.976 (24000/1001) FPS
  17. Color space                              : YUV
  18. Chroma subsampling                       : 4:2:0
  19. Bit depth                                : 8 bits
  20. Scan type                                : Progressive
  21. Bits/(Pixel*Frame)                       : 0.147
  22. Stream size                              : 18.4 GiB (69%)
  23. Title                                    : Rocketman.2019.2160p.BluRay.x264.8bit.SDR.DTS-HD.MA.TrueHD.7.1.Atmos-SWTYBLZ
  24. Writing library                          : x264 core 157 r2935 545de2f
  25. Encoding settings                        : cabac=1 / ref=5 / deblock=1:-1:-1 / analyse=0x3:0x113 / me=umh / subme=10 / psy=1 / psy_rd=1.00:0.15 / mixed_ref=1 / me_range=48 / chroma_me=1 / trellis=2 / 8x8dct=1 / cqm=0 / deadzone=21,11 / fast_pskip=1 / chroma_qp_offset=-3 / threads=50 / lookahead_threads=4 / sliced_threads=0 / nr=0 / decimate=0 / interlaced=0 / bluray_compat=0 / constrained_intra=0 / bframes=3 / b_pyramid=2 / b_adapt=2 / b_bias=0 / direct=3 / weightb=1 / open_gop=0 / weightp=2 / keyint=250 / keyint_min=23 / scenecut=40 / intra_refresh=0 / rc_lookahead=50 / rc=crf / mbtree=1 / crf=18.0 / qcomp=0.60 / qpmin=0 / qpmax=69 / qpstep=4 / ip_ratio=1.40 / aq=1:1.00
  26. Default                                  : Yes
  27. Forced                                   : No
  28. Audio #1
  29. ID                                       : 2
  30. Format                                   : MLP FBA 16-ch
  31. Format/Info                              : Meridian Lossless Packing FBA with 16-channel presentation
  32. Commercial name                          : Dolby TrueHD with Dolby Atmos
  33. Codec ID                                 : A_TRUEHD
  34. Duration                                 : 2 h 1 min
  35. Bit rate mode                            : Variable
  36. Bit rate                                 : 4 133 kb/s
  37. Maximum bit rate                         : 7 836 kb/s
  38. Channel(s)                               : 8 channels
  39. Channel layout                           : L R C LFE Ls Rs Lb Rb
  40. Sampling rate                            : 48.0 kHz
  41. Frame rate                               : 1 200.000 FPS (40 SPF)
  42. Compression mode                         : Lossless
  43. Stream size                              : 3.50 GiB (13%)
  44. Title                                    : Rocketman.2019.2160p.BluRay.x264.8bit.SDR.DTS-HD.MA.TrueHD.7.1.Atmos-SWTYBLZ
  45. Language                                 : English
  46. Default                                  : Yes
  47. Forced                                   : No
  48. Number of dynamic objects                : 11
  49. Bed channel count                        : 1 channel
  50. Bed channel configuration                : LFE
  51. Audio #2
  52. ID                                       : 3
  53. Format                                   : DTS XLL
  54. Format/Info                              : Digital Theater Systems
  55. Commercial name                          : DTS-HD Master Audio
  56. Codec ID                                 : A_DTS
  57. Duration                                 : 2 h 1 min
  58. Bit rate mode                            : Variable
  59. Bit rate                                 : 4 185 kb/s
  60. Channel(s)                               : 8 channels
  61. Channel layout                           : C L R LFE Lb Rb Lss Rss
  62. Sampling rate                            : 48.0 kHz
  63. Frame rate                               : 93.750 FPS (512 SPF)
  64. Bit depth                                : 24 bits
  65. Compression mode                         : Lossless
  66. Stream size                              : 3.54 GiB (13%)
  67. Title                                    : Rocketman.2019.2160p.BluRay.x264.8bit.SDR.DTS-HD.MA.TrueHD.7.1.Atmos-SWTYBLZ
  68. Default                                  : No
  69. Forced                                   : No
  70. Audio #3
  71. ID                                       : 4
  72. Format                                   : AC-3
  73. Format/Info                              : Audio Coding 3
  74. Commercial name                          : Dolby Digital
  75. Codec ID                                 : A_AC3
  76. Duration                                 : 2 h 1 min
  77. Bit rate mode                            : Constant
  78. Bit rate                                 : 640 kb/s
  79. Channel(s)                               : 6 channels
  80. Channel layout                           : L R C LFE Ls Rs
  81. Sampling rate                            : 48.0 kHz
  82. Frame rate                               : 31.250 FPS (1536 SPF)
  83. Bit depth                                : 16 bits
  84. Compression mode                         : Lossy
  85. Stream size                              : 555 MiB (2%)
  86. Title                                    : Rocketman.2019.2160p.BluRay.x264.8bit.SDR.DTS-HD.MA.TrueHD.7.1.Atmos-SWTYBLZ
  87. Language                                 : English
  88. Service kind                             : Complete Main
  89. Default                                  : No
  90. Forced                                   : No
  91. Text #1
  92. ID                                       : 5
  93. Format                                   : UTF-8
  94. Codec ID                                 : S_TEXT/UTF8
  95. Codec ID/Info                            : UTF-8 Plain Text
  96. Duration                                 : 1 h 58 min
  97. Bit rate                                 : 66 b/s
  98. Count of elements                        : 1603
  99. Stream size                              : 57.8 KiB (0%)
  100. Title                                    : English-SRT
  101. Language                                 : English
  102. Default                                  : Yes
  103. Forced                                   : No
  104. Text #2
  105. ID                                       : 6
  106. Format                                   : PGS
  107. Muxing mode                              : zlib
  108. Codec ID                                 : S_HDMV/PGS
  109. Codec ID/Info                            : Picture based subtitle format used on BDs/HD-DVDs
  110. Duration                                 : 1 h 50 min
  111. Bit rate                                 : 37.3 kb/s
  112. Count of elements                        : 2638
  113. Stream size                              : 29.6 MiB (0%)
  114. Title                                    : English-PGS
  115. Language                                 : English
  116. Default                                  : No
  117. Forced                                   : No
  118. Text #3
  119. ID                                       : 7
  120. Format                                   : PGS
  121. Muxing mode                              : zlib
  122. Codec ID                                 : S_HDMV/PGS
  123. Codec ID/Info                            : Picture based subtitle format used on BDs/HD-DVDs
  124. Duration                                 : 1 h 59 min
  125. Bit rate                                 : 45.9 kb/s
  126. Count of elements                        : 3462
  127. Stream size                              : 39.1 MiB (0%)
  128. Title                                    : English-SDH-PGS
  129. Language                                 : English
  130. Default                                  : No
  131. Forced                                   : No
  132. Text #4
  133. ID                                       : 8
  134. Format                                   : PGS
  135. Muxing mode                              : zlib
  136. Codec ID                                 : S_HDMV/PGS
  137. Codec ID/Info                            : Picture based subtitle format used on BDs/HD-DVDs
  138. Duration                                 : 1 h 58 min
  139. Bit rate                                 : 17.6 kb/s
  140. Count of elements                        : 2714
  141. Stream size                              : 14.9 MiB (0%)
  142. Title                                    : Arabic-PGS
  143. Language                                 : Arabic
  144. Default                                  : No
  145. Forced                                   : No
  146. Text #5
  147. ID                                       : 9
  148. Format                                   : PGS
  149. Muxing mode                              : zlib
  150. Codec ID                                 : S_HDMV/PGS
  151. Codec ID/Info                            : Picture based subtitle format used on BDs/HD-DVDs
  152. Duration                                 : 1 h 59 min
  153. Bit rate                                 : 27.1 kb/s
  154. Count of elements                        : 2716
  155. Stream size                              : 23.2 MiB (0%)
  156. Title                                    : Chinese-PGS
  157. Language                                 : Chinese
  158. Default                                  : No
  159. Forced                                   : No
  160. Text #6
  161. ID                                       : 10
  162. Format                                   : PGS
  163. Muxing mode                              : zlib
  164. Codec ID                                 : S_HDMV/PGS
  165. Codec ID/Info                            : Picture based subtitle format used on BDs/HD-DVDs
  166. Duration                                 : 1 h 59 min
  167. Bit rate                                 : 26.8 kb/s
  168. Count of elements                        : 2716
  169. Stream size                              : 22.9 MiB (0%)
  170. Title                                    : Chinese-PGS
  171. Language                                 : Chinese
  172. Default                                  : No
  173. Forced                                   : No
  174. Text #7
  175. ID                                       : 11
  176. Format                                   : PGS
  177. Muxing mode                              : zlib
  178. Codec ID                                 : S_HDMV/PGS
  179. Codec ID/Info                            : Picture based subtitle format used on BDs/HD-DVDs
  180. Duration                                 : 1 h 58 min
  181. Bit rate                                 : 31.3 kb/s
  182. Count of elements                        : 2690
  183. Stream size                              : 26.5 MiB (0%)
  184. Title                                    : Czech-PGS
  185. Language                                 : Czech
  186. Default                                  : No
  187. Forced                                   : No
  188. Text #8
  189. ID                                       : 12
  190. Format                                   : PGS
  191. Muxing mode                              : zlib
  192. Codec ID                                 : S_HDMV/PGS
  193. Codec ID/Info                            : Picture based subtitle format used on BDs/HD-DVDs
  194. Duration                                 : 1 h 58 min
  195. Bit rate                                 : 31.5 kb/s
  196. Count of elements                        : 2674
  197. Stream size                              : 26.7 MiB (0%)
  198. Title                                    : Danish-PGS
  199. Language                                 : Danish
  200. Default                                  : No
  201. Forced                                   : No
  202. Text #9
  203. ID                                       : 13
  204. Format                                   : PGS
  205. Muxing mode                              : zlib
  206. Codec ID                                 : S_HDMV/PGS
  207. Codec ID/Info                            : Picture based subtitle format used on BDs/HD-DVDs
  208. Duration                                 : 1 h 58 min
  209. Bit rate                                 : 31.4 kb/s
  210. Count of elements                        : 2664
  211. Stream size                              : 26.7 MiB (0%)
  212. Title                                    : Dutch-PGS
  213. Language                                 : Dutch
  214. Default                                  : No
  215. Forced                                   : No
  216. Text #10
  217. ID                                       : 14
  218. Format                                   : PGS
  219. Muxing mode                              : zlib
  220. Codec ID                                 : S_HDMV/PGS
  221. Codec ID/Info                            : Picture based subtitle format used on BDs/HD-DVDs
  222. Duration                                 : 1 h 58 min
  223. Bit rate                                 : 31.6 kb/s
  224. Count of elements                        : 2694
  225. Stream size                              : 26.8 MiB (0%)
  226. Title                                    : Finnish-PGS
  227. Language                                 : Finnish
  228. Default                                  : No
  229. Forced                                   : No
  230. Text #11
  231. ID                                       : 15
  232. Format                                   : PGS
  233. Muxing mode                              : zlib
  234. Codec ID                                 : S_HDMV/PGS
  235. Codec ID/Info                            : Picture based subtitle format used on BDs/HD-DVDs
  236. Duration                                 : 1 h 58 min
  237. Bit rate                                 : 37.4 kb/s
  238. Count of elements                        : 2696
  239. Stream size                              : 31.7 MiB (0%)
  240. Title                                    : French-PGS
  241. Language                                 : French
  242. Default                                  : No
  243. Forced                                   : No
  244. Text #12
  245. ID                                       : 16
  246. Format                                   : PGS
  247. Muxing mode                              : zlib
  248. Codec ID                                 : S_HDMV/PGS
  249. Codec ID/Info                            : Picture based subtitle format used on BDs/HD-DVDs
  250. Duration                                 : 1 h 58 min
  251. Bit rate                                 : 31.2 kb/s
  252. Count of elements                        : 2638
  253. Stream size                              : 26.4 MiB (0%)
  254. Title                                    : French-PGS
  255. Language                                 : French
  256. Default                                  : No
  257. Forced                                   : No
  258. Text #13
  259. ID                                       : 17
  260. Format                                   : PGS
  261. Muxing mode                              : zlib
  262. Codec ID                                 : S_HDMV/PGS
  263. Codec ID/Info                            : Picture based subtitle format used on BDs/HD-DVDs
  264. Duration                                 : 1 h 58 min
  265. Bit rate                                 : 37.0 kb/s
  266. Count of elements                        : 2660
  267. Stream size                              : 31.4 MiB (0%)
  268. Title                                    : German-PGS
  269. Language                                 : German
  270. Default                                  : No
  271. Forced                                   : No
  272. Text #14
  273. ID                                       : 18
  274. Format                                   : PGS
  275. Muxing mode                              : zlib
  276. Codec ID                                 : S_HDMV/PGS
  277. Codec ID/Info                            : Picture based subtitle format used on BDs/HD-DVDs
  278. Duration                                 : 1 h 58 min
  279. Bit rate                                 : 35.0 kb/s
  280. Count of elements                        : 2696
  281. Stream size                              : 29.7 MiB (0%)
  282. Title                                    : Greek-PGS
  283. Language                                 : Greek
  284. Default                                  : No
  285. Forced                                   : No
  286. Text #15
  287. ID                                       : 19
  288. Format                                   : PGS
  289. Muxing mode                              : zlib
  290. Codec ID                                 : S_HDMV/PGS
  291. Codec ID/Info                            : Picture based subtitle format used on BDs/HD-DVDs
  292. Duration                                 : 1 h 58 min
  293. Bit rate                                 : 38.4 kb/s
  294. Count of elements                        : 2892
  295. Stream size                              : 32.7 MiB (0%)
  296. Title                                    : Hindi-PGS
  297. Language                                 : Hindi
  298. Default                                  : No
  299. Forced                                   : No
  300. Text #16
  301. ID                                       : 20
  302. Format                                   : PGS
  303. Muxing mode                              : zlib
  304. Codec ID                                 : S_HDMV/PGS
  305. Codec ID/Info                            : Picture based subtitle format used on BDs/HD-DVDs
  306. Duration                                 : 1 h 58 min
  307. Bit rate                                 : 31.8 kb/s
  308. Count of elements                        : 2698
  309. Stream size                              : 26.9 MiB (0%)
  310. Title                                    : Hungarian-PGS
  311. Language                                 : Hungarian
  312. Default                                  : No
  313. Forced                                   : No
  314. Text #17
  315. ID                                       : 21
  316. Format                                   : PGS
  317. Muxing mode                              : zlib
  318. Codec ID                                 : S_HDMV/PGS
  319. Codec ID/Info                            : Picture based subtitle format used on BDs/HD-DVDs
  320. Duration                                 : 1 h 58 min
  321. Bit rate                                 : 34.4 kb/s
  322. Count of elements                        : 2706
  323. Stream size                              : 29.2 MiB (0%)
  324. Title                                    : Icelandic-PGS
  325. Language                                 : Icelandic
  326. Default                                  : No
  327. Forced                                   : No
  328. Text #18
  329. ID                                       : 22
  330. Format                                   : PGS
  331. Muxing mode                              : zlib
  332. Codec ID                                 : S_HDMV/PGS
  333. Codec ID/Info                            : Picture based subtitle format used on BDs/HD-DVDs
  334. Duration                                 : 1 h 58 min
  335. Bit rate                                 : 34.2 kb/s
  336. Count of elements                        : 2672
  337. Stream size                              : 29.0 MiB (0%)
  338. Title                                    : Italian-PGS
  339. Language                                 : Italian
  340. Default                                  : No
  341. Forced                                   : No
  342. Text #19
  343. ID                                       : 23
  344. Format                                   : PGS
  345. Muxing mode                              : zlib
  346. Codec ID                                 : S_HDMV/PGS
  347. Codec ID/Info                            : Picture based subtitle format used on BDs/HD-DVDs
  348. Duration                                 : 1 h 53 min
  349. Bit rate                                 : 23.4 kb/s
  350. Count of elements                        : 2642
  351. Stream size                              : 19.0 MiB (0%)
  352. Title                                    : Japanese-PGS
  353. Language                                 : Japanese
  354. Default                                  : No
  355. Forced                                   : No
  356. Text #20
  357. ID                                       : 24
  358. Format                                   : PGS
  359. Muxing mode                              : zlib
  360. Codec ID                                 : S_HDMV/PGS
  361. Codec ID/Info                            : Picture based subtitle format used on BDs/HD-DVDs
  362. Duration                                 : 1 h 59 min
  363. Bit rate                                 : 23.5 kb/s
  364. Count of elements                        : 2716
  365. Stream size                              : 20.1 MiB (0%)
  366. Title                                    : Korean-PGS
  367. Language                                 : Korean
  368. Default                                  : No
  369. Forced                                   : No
  370. Text #21
  371. ID                                       : 25
  372. Format                                   : PGS
  373. Muxing mode                              : zlib
  374. Codec ID                                 : S_HDMV/PGS
  375. Codec ID/Info                            : Picture based subtitle format used on BDs/HD-DVDs
  376. Duration                                 : 1 h 58 min
  377. Bit rate                                 : 39.2 kb/s
  378. Count of elements                        : 2696
  379. Stream size                              : 33.2 MiB (0%)
  380. Title                                    : Malay-PGS
  381. Language                                 : Malay
  382. Default                                  : No
  383. Forced                                   : No
  384. Text #22
  385. ID                                       : 26
  386. Format                                   : PGS
  387. Muxing mode                              : zlib
  388. Codec ID                                 : S_HDMV/PGS
  389. Codec ID/Info                            : Picture based subtitle format used on BDs/HD-DVDs
  390. Duration                                 : 1 h 58 min
  391. Bit rate                                 : 29.1 kb/s
  392. Count of elements                        : 2650
  393. Stream size                              : 24.7 MiB (0%)
  394. Title                                    : Norwegian-PGS
  395. Language                                 : Norwegian
  396. Default                                  : No
  397. Forced                                   : No
  398. Text #23
  399. ID                                       : 27
  400. Format                                   : PGS
  401. Muxing mode                              : zlib
  402. Codec ID                                 : S_HDMV/PGS
  403. Codec ID/Info                            : Picture based subtitle format used on BDs/HD-DVDs
  404. Duration                                 : 1 h 58 min
  405. Bit rate                                 : 31.5 kb/s
  406. Count of elements                        : 2694
  407. Stream size                              : 26.7 MiB (0%)
  408. Title                                    : Polish-PGS
  409. Language                                 : Polish
  410. Default                                  : No
  411. Forced                                   : No
  412. Text #24
  413. ID                                       : 28
  414. Format                                   : PGS
  415. Muxing mode                              : zlib
  416. Codec ID                                 : S_HDMV/PGS
  417. Codec ID/Info                            : Picture based subtitle format used on BDs/HD-DVDs
  418. Duration                                 : 1 h 58 min
  419. Bit rate                                 : 33.8 kb/s
  420. Count of elements                        : 2692
  421. Stream size                              : 28.6 MiB (0%)
  422. Title                                    : Portuguese-PGS
  423. Language                                 : Portuguese
  424. Default                                  : No
  425. Forced                                   : No
  426. Text #25
  427. ID                                       : 29
  428. Format                                   : PGS
  429. Muxing mode                              : zlib
  430. Codec ID                                 : S_HDMV/PGS
  431. Codec ID/Info                            : Picture based subtitle format used on BDs/HD-DVDs
  432. Duration                                 : 1 h 58 min
  433. Bit rate                                 : 31.7 kb/s
  434. Count of elements                        : 2698
  435. Stream size                              : 26.8 MiB (0%)
  436. Title                                    : Romanian-PGS
  437. Language                                 : Romanian
  438. Default                                  : No
  439. Forced                                   : No
  440. Text #26
  441. ID                                       : 30
  442. Format                                   : PGS
  443. Muxing mode                              : zlib
  444. Codec ID                                 : S_HDMV/PGS
  445. Codec ID/Info                            : Picture based subtitle format used on BDs/HD-DVDs
  446. Duration                                 : 1 h 59 min
  447. Bit rate                                 : 33.5 kb/s
  448. Count of elements                        : 2722
  449. Stream size                              : 28.7 MiB (0%)
  450. Title                                    : Russian-PGS
  451. Language                                 : Russian
  452. Default                                  : No
  453. Forced                                   : No
  454. Text #27
  455. ID                                       : 31
  456. Format                                   : PGS
  457. Muxing mode                              : zlib
  458. Codec ID                                 : S_HDMV/PGS
  459. Codec ID/Info                            : Picture based subtitle format used on BDs/HD-DVDs
  460. Duration                                 : 1 h 58 min
  461. Bit rate                                 : 28.6 kb/s
  462. Count of elements                        : 2678
  463. Stream size                              : 24.2 MiB (0%)
  464. Title                                    : Slovak-PGS
  465. Language                                 : Slovak
  466. Default                                  : No
  467. Forced                                   : No
  468. Text #28
  469. ID                                       : 32
  470. Format                                   : PGS
  471. Muxing mode                              : zlib
  472. Codec ID                                 : S_HDMV/PGS
  473. Codec ID/Info                            : Picture based subtitle format used on BDs/HD-DVDs
  474. Duration                                 : 1 h 58 min
  475. Bit rate                                 : 34.8 kb/s
  476. Count of elements                        : 2700
  477. Stream size                              : 29.5 MiB (0%)
  478. Title                                    : Spanish-PGS
  479. Language                                 : Spanish
  480. Default                                  : No
  481. Forced                                   : No
  482. Text #29
  483. ID                                       : 33
  484. Format                                   : PGS
  485. Muxing mode                              : zlib
  486. Codec ID                                 : S_HDMV/PGS
  487. Codec ID/Info                            : Picture based subtitle format used on BDs/HD-DVDs
  488. Duration                                 : 1 h 58 min
  489. Bit rate                                 : 33.4 kb/s
  490. Count of elements                        : 2700
  491. Stream size                              : 28.3 MiB (0%)
  492. Title                                    : Spanish-PGS
  493. Language                                 : Spanish
  494. Default                                  : No
  495. Forced                                   : No
  496. Text #30
  497. ID                                       : 34
  498. Format                                   : PGS
  499. Muxing mode                              : zlib
  500. Codec ID                                 : S_HDMV/PGS
  501. Codec ID/Info                            : Picture based subtitle format used on BDs/HD-DVDs
  502. Duration                                 : 1 h 58 min
  503. Bit rate                                 : 30.5 kb/s
  504. Count of elements                        : 2662
  505. Stream size                              : 25.9 MiB (0%)
  506. Title                                    : Swedish-PGS
  507. Language                                 : Swedish
  508. Default                                  : No
  509. Forced                                   : No
  510. Text #31
  511. ID                                       : 35
  512. Format                                   : PGS
  513. Muxing mode                              : zlib
  514. Codec ID                                 : S_HDMV/PGS
  515. Codec ID/Info                            : Picture based subtitle format used on BDs/HD-DVDs
  516. Duration                                 : 1 h 59 min
  517. Bit rate                                 : 26.1 kb/s
  518. Count of elements                        : 2716
  519. Stream size                              : 22.3 MiB (0%)
  520. Title                                    : Thai-PGS
  521. Language                                 : Thai
  522. Default                                  : No
  523. Forced                                   : No
  524. Text #32
  525. ID                                       : 36
  526. Format                                   : PGS
  527. Muxing mode                              : zlib
  528. Codec ID                                 : S_HDMV/PGS
  529. Codec ID/Info                            : Picture based subtitle format used on BDs/HD-DVDs
  530. Duration                                 : 1 h 58 min
  531. Bit rate                                 : 34.5 kb/s
  532. Count of elements                        : 2700
  533. Stream size                              : 29.3 MiB (0%)
  534. Title                                    : Turkish-PGS
  535. Language                                 : Turkish
  536. Default                                  : No
  537. Forced                                   : No
  538. Menu
  539. 00:00:00.000                             : en:Chapter 01
  540. 00:05:50.725                             : en:Chapter 02
  541. 00:11:20.805                             : en:Chapter 03
  542. 00:18:43.080                             : en:Chapter 04
  543. 00:22:39.858                             : en:Chapter 05
  544. 00:28:01.054                             : en:Chapter 06
  545. 00:34:21.393                             : en:Chapter 07
  546. 00:38:35.230                             : en:Chapter 08
  547. 00:42:52.445                             : en:Chapter 09
  548. 00:50:40.579                             : en:Chapter 10
  549. 00:57:30.906                             : en:Chapter 11
  550. 01:04:06.176                             : en:Chapter 12
  551. 01:09:28.915                             : en:Chapter 13
  552. 01:16:10.941                             : en:Chapter 14
  553. 01:24:44.079                             : en:Chapter 15
  554. 01:29:09.344                             : en:Chapter 16
  555. 01:35:22.383                             : en:Chapter 17
  556. 01:42:46.243                             : en:Chapter 18
  557. 01:51:11.832                             : en:Chapter 19
  558. 01:55:25.335                             : en:Chapter 20
复制代码










                                       
                                       

                                       
                                       
                                       




回复

使用道具 举报

懒得打字嘛,点击右侧快捷回复 【右侧内容,后台自定义】
您需要登录后才可以回帖 登录 | 立即加入

本版积分规则

Copyright © 2024 Comsenz Inc. Powered by 蓝光电影网

本站内容由用户自主分享和转载自互联网,转载目的在于传递更多信息,并不代表本网赞同其观点和对其真实性负责。

如有侵权、违反国家法律政策行为,请联系我们,我们会第一时间及时清除和处理!

举报反馈邮箱:4k1080.com@gmail.com

快速回复 返回顶部 返回列表