找回密码

查看: 1293|回复: 0

[2160p] 火箭人/摇滚太空人 Rocketman.2019.2160p.BluRay.x265.10bit.SDR.DTS-HD.MA.TrueHD.7.1.Atmos-SWTYBLZ 26.20GB

[复制链接]
蓝光币
1840
发表于 2019-8-20 03:40:28 | 显示全部楼层 |阅读模式


◎译  名 火箭人 / 摇滚太空人(港) / 火箭客
◎片  名 Rocketman
◎年  代 2019
◎产  地 英国 / 美国
◎类  别 剧情 / 音乐 / 列传
◎语  言 英语
◎上映日期 2019-05-16(戛纳电影节) / 2019-05-22(英国) / 2019-05-31(美国)
◎IMDb评分  7.7/10 from 40740 users
◎IMDb链接  http://www.imdb.com/title/tt2066051
◎豆瓣评分 7.4/10 from 1546 users
◎豆瓣链接 https://movie.douban.com/subject/6895950/
◎片  长 121分钟
◎导  演 德克斯特·弗莱彻 Dexter Fletcher
◎编  剧 李·哈尔 Lee Hall
◎主  演 塔伦·埃格顿 Taron Egerton
      理查德·麦登 Richard Madden
      杰米·贝尔 Jamie Bell
      布莱丝·达拉斯·霍华德 Bryce Dallas Howard
      斯蒂文·麦金托什 Steven Mackintosh
      查理·罗 Charlie Rowe
      哈丽特·瓦尔特 Harriet Walter
      维克托里娅·菲斯 Viktorija Faith
      杰玛·琼斯 Gemma Jones
      汤姆·班尼特 Tom Bennett
      朱利安·费罗 Julian Ferro
      莱顿·威廉姆斯 Layton Williams
      基特·康纳 Kit Connor
      卡米尔·雷米泽斯基 Kamil Lemieszewski
      贝恩·科拉科 Bern Colla?o
      齐亚德·阿巴扎 Ziad Abaza
      伊斯雷尔·鲁兹 Israel Ruiz
      拉斯科·阿特金斯 Lasco Atkins
      格雷厄姆·弗莱彻-库克 Graham Fletcher-Cook
      史蒂威·戴维斯 Stevee Davies

◎标  签 列传 | 音乐 | 2019 | 英国 | 美国 | 剧情 | LGBT | 歌舞
◎简  介  
  由《奔腾奇蹟》导演戴克斯特佛莱契执导,《火箭人》是论述英国国宝级歌手艾尔顿强爵士的故事,若何从英国皇家音乐学院的奇才,酿成了风行音乐界的天王,现今乐坛的传奇人物。片名取自艾尔顿强典范名曲〈ROCKETMAN〉,泰隆艾格顿应战富丽多变、大胆前卫的舞台外型,以及一边弹钢琴一边大展爆发力的歌喉,唱出一首首观众耳熟能详的动听歌曲,绝对是不能错过的音乐奇想电影。
  1. Video
  2. ID                                       : 1
  3. Format                                   : HEVC
  4. Format/Info                              : High Efficiency Video Coding
  5. Format profile                           : Main [email protected]@High
  6. Codec ID                                 : V_MPEGH/ISO/HEVC
  7. Duration                                 : 2 h 1 min
  8. Bit rate                                 : 21.2 Mb/s
  9. Width                                    : 3 840 pixels
  10. Height                                   : 1 606 pixels
  11. Display aspect ratio                     : 2.40:1
  12. Frame rate mode                          : Constant
  13. Frame rate                               : 23.976 (24000/1001) FPS
  14. Color space                              : YUV
  15. Chroma subsampling                       : 4:2:0
  16. Bit depth                                : 10 bits
  17. Bits/(Pixel*Frame)                       : 0.143
  18. Stream size                              : 18.0 GiB (69%)
  19. Title                                    : Rocketman.2019.2160p.BluRay.x265.10bit.SDR.DTS-HD.MA.TrueHD.7.1.Atmos-SWTYBLZ
  20. Writing library                          : x265 3.0ed72af837053:[Windows][GCC 8.2.0][64 bit] 10bit
  21. Encoding settings                        : cpuid=1111039 / frame-threads=16 / numa-pools=24,24,24,24 / wpp / no-pmode / no-pme / no-psnr / no-ssim / log-level=2 / input-csp=1 / input-res=3840x1606 / interlace=0 / total-frames=174472 / level-idc=51 / high-tier=1 / uhd-bd=0 / ref=3 / no-allow-non-conformance / repeat-headers / annexb / aud / hrd / info / hash=0 / no-temporal-layers / no-open-gop / min-keyint=1 / keyint=24 / gop-lookahead=0 / bframes=4 / b-adapt=2 / b-pyramid / bframe-bias=0 / rc-lookahead=25 / lookahead-slices=4 / scenecut=40 / radl=0 / no-splice / no-intra-refresh / ctu=64 / min-cu-size=8 / no-rect / no-amp / max-tu-size=32 / tu-inter-depth=1 / tu-intra-depth=1 / limit-tu=0 / rdoq-level=0 / dynamic-rd=0.00 / no-ssim-rd / signhide / no-tskip / nr-intra=0 / nr-inter=0 / no-constrained-intra / strong-intra-smoothing / max-merge=2 / limit-refs=3 / no-limit-modes / me=1 / subme=2 / merange=57 / temporal-mvp / weightp / no-weightb / no-analyze-src-pics / deblock=0:0 / no-sao / no-sao-non-deblock / rd=3 / no-early-skip / rskip / no-fast-intra / no-tskip-fast / no-cu-lossless / no-b-intra / no-splitrd-skip / rdpenalty=0 / psy-rd=2.00 / psy-rdoq=0.00 / no-rd-refine / no-lossless / cbqpoffs=0 / crqpoffs=0 / rc=crf / crf=16.0 / qcomp=0.60 / qpstep=4 / stats-write=0 / stats-read=0 / vbv-maxrate=160000 / vbv-bufsize=160000 / vbv-init=0.9 / crf-max=0.0 / crf-min=0.0 / ipratio=1.40 / pbratio=1.30 / aq-mode=1 / aq-strength=1.00 / cutree / zone-count=0 / no-strict-cbr / qg-size=32 / no-rc-grain / qpmax=69 / qpmin=0 / no-const-vbv / sar=1 / overscan=0 / videoformat=5 / range=0 / colorprim=2 / transfer=2 / colormatrix=2 / chromaloc=0 / display-window=0 / max-cll=0,0 / min-luma=0 / max-luma=1023 / log2-max-poc-lsb=8 / vui-timing-info / vui-hrd-info / slices=1 / opt-qp-pps / opt-ref-list-length-pps / no-multi-pass-opt-rps / scenecut-bias=0.05 / no-opt-cu-delta-qp / no-aq-motion / no-hdr / no-hdr-opt / no-dhdr10-opt / no-idr-recovery-sei / analysis-reuse-level=5 / scale-factor=0 / refine-intra=0 / refine-inter=0 / refine-mv=0 / refine-ctu-distortion=0 / no-limit-sao / ctu-info=0 / no-lowpass-dct / refine-analysis-type=0 / copy-pic=1 / max-ausize-factor=1.0 / no-dynamic-refine / no-single-sei / no-hevc-aq / qp-adaptation-range=1.00
  22. Default                                  : Yes
  23. Forced                                   : No
  24. Audio #1
  25. ID                                       : 2
  26. Format                                   : MLP FBA 16-ch
  27. Format/Info                              : Meridian Lossless Packing FBA with 16-channel presentation
  28. Commercial name                          : Dolby TrueHD with Dolby Atmos
  29. Codec ID                                 : A_TRUEHD
  30. Duration                                 : 2 h 1 min
  31. Bit rate mode                            : Variable
  32. Bit rate                                 : 4 133 kb/s
  33. Maximum bit rate                         : 7 836 kb/s
  34. Channel(s)                               : 8 channels
  35. Channel layout                           : L R C LFE Ls Rs Lb Rb
  36. Sampling rate                            : 48.0 kHz
  37. Frame rate                               : 1 200.000 FPS (40 SPF)
  38. Compression mode                         : Lossless
  39. Stream size                              : 3.50 GiB (13%)
  40. Title                                    : Rocketman.2019.2160p.BluRay.x265.10bit.SDR.DTS-HD.MA.TrueHD.7.1.Atmos-SWTYBLZ
  41. Language                                 : English
  42. Default                                  : Yes
  43. Forced                                   : No
  44. Number of dynamic objects                : 11
  45. Bed channel count                        : 1 channel
  46. Bed channel configuration                : LFE
  47. Audio #2
  48. ID                                       : 3
  49. Format                                   : DTS XLL
  50. Format/Info                              : Digital Theater Systems
  51. Commercial name                          : DTS-HD Master Audio
  52. Codec ID                                 : A_DTS
  53. Duration                                 : 2 h 1 min
  54. Bit rate mode                            : Variable
  55. Bit rate                                 : 4 185 kb/s
  56. Channel(s)                               : 8 channels
  57. Channel layout                           : C L R LFE Lb Rb Lss Rss
  58. Sampling rate                            : 48.0 kHz
  59. Frame rate                               : 93.750 FPS (512 SPF)
  60. Bit depth                                : 24 bits
  61. Compression mode                         : Lossless
  62. Stream size                              : 3.54 GiB (14%)
  63. Title                                    : Rocketman.2019.2160p.BluRay.x265.10bit.SDR.DTS-HD.MA.TrueHD.7.1.Atmos-SWTYBLZ
  64. Default                                  : No
  65. Forced                                   : No
  66. Audio #3
  67. ID                                       : 4
  68. Format                                   : AC-3
  69. Format/Info                              : Audio Coding 3
  70. Commercial name                          : Dolby Digital
  71. Codec ID                                 : A_AC3
  72. Duration                                 : 2 h 1 min
  73. Bit rate mode                            : Constant
  74. Bit rate                                 : 640 kb/s
  75. Channel(s)                               : 6 channels
  76. Channel layout                           : L R C LFE Ls Rs
  77. Sampling rate                            : 48.0 kHz
  78. Frame rate                               : 31.250 FPS (1536 SPF)
  79. Bit depth                                : 16 bits
  80. Compression mode                         : Lossy
  81. Stream size                              : 555 MiB (2%)
  82. Title                                    : Rocketman.2019.2160p.BluRay.x265.10bit.SDR.DTS-HD.MA.TrueHD.7.1.Atmos-SWTYBLZ
  83. Language                                 : English
  84. Service kind                             : Complete Main
  85. Default                                  : No
  86. Forced                                   : No
  87. Text #1
  88. ID                                       : 5
  89. Format                                   : UTF-8
  90. Codec ID                                 : S_TEXT/UTF8
  91. Codec ID/Info                            : UTF-8 Plain Text
  92. Duration                                 : 1 h 58 min
  93. Bit rate                                 : 66 b/s
  94. Count of elements                        : 1603
  95. Stream size                              : 57.8 KiB (0%)
  96. Title                                    : English-SRT
  97. Language                                 : English
  98. Default                                  : Yes
  99. Forced                                   : No
  100. Text #2
  101. ID                                       : 6
  102. Format                                   : PGS
  103. Muxing mode                              : zlib
  104. Codec ID                                 : S_HDMV/PGS
  105. Codec ID/Info                            : Picture based subtitle format used on BDs/HD-DVDs
  106. Duration                                 : 1 h 50 min
  107. Bit rate                                 : 37.3 kb/s
  108. Count of elements                        : 2638
  109. Stream size                              : 29.6 MiB (0%)
  110. Title                                    : English-PGS
  111. Language                                 : English
  112. Default                                  : No
  113. Forced                                   : No
  114. Text #3
  115. ID                                       : 7
  116. Format                                   : PGS
  117. Muxing mode                              : zlib
  118. Codec ID                                 : S_HDMV/PGS
  119. Codec ID/Info                            : Picture based subtitle format used on BDs/HD-DVDs
  120. Duration                                 : 1 h 59 min
  121. Bit rate                                 : 45.9 kb/s
  122. Count of elements                        : 3462
  123. Stream size                              : 39.1 MiB (0%)
  124. Title                                    : English-SDH-PGS
  125. Language                                 : English
  126. Default                                  : No
  127. Forced                                   : No
  128. Text #4
  129. ID                                       : 8
  130. Format                                   : PGS
  131. Muxing mode                              : zlib
  132. Codec ID                                 : S_HDMV/PGS
  133. Codec ID/Info                            : Picture based subtitle format used on BDs/HD-DVDs
  134. Duration                                 : 1 h 58 min
  135. Bit rate                                 : 17.6 kb/s
  136. Count of elements                        : 2714
  137. Stream size                              : 14.9 MiB (0%)
  138. Title                                    : Arabic-PGS
  139. Language                                 : Arabic
  140. Default                                  : No
  141. Forced                                   : No
  142. Text #5
  143. ID                                       : 9
  144. Format                                   : PGS
  145. Muxing mode                              : zlib
  146. Codec ID                                 : S_HDMV/PGS
  147. Codec ID/Info                            : Picture based subtitle format used on BDs/HD-DVDs
  148. Duration                                 : 1 h 59 min
  149. Bit rate                                 : 27.1 kb/s
  150. Count of elements                        : 2716
  151. Stream size                              : 23.2 MiB (0%)
  152. Title                                    : Chinese-PGS
  153. Language                                 : Chinese
  154. Default                                  : No
  155. Forced                                   : No
  156. Text #6
  157. ID                                       : 10
  158. Format                                   : PGS
  159. Muxing mode                              : zlib
  160. Codec ID                                 : S_HDMV/PGS
  161. Codec ID/Info                            : Picture based subtitle format used on BDs/HD-DVDs
  162. Duration                                 : 1 h 59 min
  163. Bit rate                                 : 26.8 kb/s
  164. Count of elements                        : 2716
  165. Stream size                              : 22.9 MiB (0%)
  166. Title                                    : Chinese-PGS
  167. Language                                 : Chinese
  168. Default                                  : No
  169. Forced                                   : No
  170. Text #7
  171. ID                                       : 11
  172. Format                                   : PGS
  173. Muxing mode                              : zlib
  174. Codec ID                                 : S_HDMV/PGS
  175. Codec ID/Info                            : Picture based subtitle format used on BDs/HD-DVDs
  176. Duration                                 : 1 h 58 min
  177. Bit rate                                 : 31.3 kb/s
  178. Count of elements                        : 2690
  179. Stream size                              : 26.5 MiB (0%)
  180. Title                                    : Czech-PGS
  181. Language                                 : Czech
  182. Default                                  : No
  183. Forced                                   : No
  184. Text #8
  185. ID                                       : 12
  186. Format                                   : PGS
  187. Muxing mode                              : zlib
  188. Codec ID                                 : S_HDMV/PGS
  189. Codec ID/Info                            : Picture based subtitle format used on BDs/HD-DVDs
  190. Duration                                 : 1 h 58 min
  191. Bit rate                                 : 31.5 kb/s
  192. Count of elements                        : 2674
  193. Stream size                              : 26.7 MiB (0%)
  194. Title                                    : Danish-PGS
  195. Language                                 : Danish
  196. Default                                  : No
  197. Forced                                   : No
  198. Text #9
  199. ID                                       : 13
  200. Format                                   : PGS
  201. Muxing mode                              : zlib
  202. Codec ID                                 : S_HDMV/PGS
  203. Codec ID/Info                            : Picture based subtitle format used on BDs/HD-DVDs
  204. Duration                                 : 1 h 58 min
  205. Bit rate                                 : 31.4 kb/s
  206. Count of elements                        : 2664
  207. Stream size                              : 26.7 MiB (0%)
  208. Title                                    : Dutch-PGS
  209. Language                                 : Dutch
  210. Default                                  : No
  211. Forced                                   : No
  212. Text #10
  213. ID                                       : 14
  214. Format                                   : PGS
  215. Muxing mode                              : zlib
  216. Codec ID                                 : S_HDMV/PGS
  217. Codec ID/Info                            : Picture based subtitle format used on BDs/HD-DVDs
  218. Duration                                 : 1 h 58 min
  219. Bit rate                                 : 31.6 kb/s
  220. Count of elements                        : 2694
  221. Stream size                              : 26.8 MiB (0%)
  222. Title                                    : Finnish-PGS
  223. Language                                 : Finnish
  224. Default                                  : No
  225. Forced                                   : No
  226. Text #11
  227. ID                                       : 15
  228. Format                                   : PGS
  229. Muxing mode                              : zlib
  230. Codec ID                                 : S_HDMV/PGS
  231. Codec ID/Info                            : Picture based subtitle format used on BDs/HD-DVDs
  232. Duration                                 : 1 h 58 min
  233. Bit rate                                 : 37.4 kb/s
  234. Count of elements                        : 2696
  235. Stream size                              : 31.7 MiB (0%)
  236. Title                                    : French-PGS
  237. Language                                 : French
  238. Default                                  : No
  239. Forced                                   : No
  240. Text #12
  241. ID                                       : 16
  242. Format                                   : PGS
  243. Muxing mode                              : zlib
  244. Codec ID                                 : S_HDMV/PGS
  245. Codec ID/Info                            : Picture based subtitle format used on BDs/HD-DVDs
  246. Duration                                 : 1 h 58 min
  247. Bit rate                                 : 31.2 kb/s
  248. Count of elements                        : 2638
  249. Stream size                              : 26.4 MiB (0%)
  250. Title                                    : French-PGS
  251. Language                                 : French
  252. Default                                  : No
  253. Forced                                   : No
  254. Text #13
  255. ID                                       : 17
  256. Format                                   : PGS
  257. Muxing mode                              : zlib
  258. Codec ID                                 : S_HDMV/PGS
  259. Codec ID/Info                            : Picture based subtitle format used on BDs/HD-DVDs
  260. Duration                                 : 1 h 58 min
  261. Bit rate                                 : 37.0 kb/s
  262. Count of elements                        : 2660
  263. Stream size                              : 31.4 MiB (0%)
  264. Title                                    : German-PGS
  265. Language                                 : German
  266. Default                                  : No
  267. Forced                                   : No
  268. Text #14
  269. ID                                       : 18
  270. Format                                   : PGS
  271. Muxing mode                              : zlib
  272. Codec ID                                 : S_HDMV/PGS
  273. Codec ID/Info                            : Picture based subtitle format used on BDs/HD-DVDs
  274. Duration                                 : 1 h 58 min
  275. Bit rate                                 : 35.0 kb/s
  276. Count of elements                        : 2696
  277. Stream size                              : 29.7 MiB (0%)
  278. Title                                    : Greek-PGS
  279. Language                                 : Greek
  280. Default                                  : No
  281. Forced                                   : No
  282. Text #15
  283. ID                                       : 19
  284. Format                                   : PGS
  285. Muxing mode                              : zlib
  286. Codec ID                                 : S_HDMV/PGS
  287. Codec ID/Info                            : Picture based subtitle format used on BDs/HD-DVDs
  288. Duration                                 : 1 h 58 min
  289. Bit rate                                 : 38.4 kb/s
  290. Count of elements                        : 2892
  291. Stream size                              : 32.7 MiB (0%)
  292. Title                                    : Hindi-PGS
  293. Language                                 : Hindi
  294. Default                                  : No
  295. Forced                                   : No
  296. Text #16
  297. ID                                       : 20
  298. Format                                   : PGS
  299. Muxing mode                              : zlib
  300. Codec ID                                 : S_HDMV/PGS
  301. Codec ID/Info                            : Picture based subtitle format used on BDs/HD-DVDs
  302. Duration                                 : 1 h 58 min
  303. Bit rate                                 : 31.8 kb/s
  304. Count of elements                        : 2698
  305. Stream size                              : 26.9 MiB (0%)
  306. Title                                    : Hungarian-PGS
  307. Language                                 : Hungarian
  308. Default                                  : No
  309. Forced                                   : No
  310. Text #17
  311. ID                                       : 21
  312. Format                                   : PGS
  313. Muxing mode                              : zlib
  314. Codec ID                                 : S_HDMV/PGS
  315. Codec ID/Info                            : Picture based subtitle format used on BDs/HD-DVDs
  316. Duration                                 : 1 h 58 min
  317. Bit rate                                 : 34.4 kb/s
  318. Count of elements                        : 2706
  319. Stream size                              : 29.2 MiB (0%)
  320. Title                                    : Icelandic-PGS
  321. Language                                 : Icelandic
  322. Default                                  : No
  323. Forced                                   : No
  324. Text #18
  325. ID                                       : 22
  326. Format                                   : PGS
  327. Muxing mode                              : zlib
  328. Codec ID                                 : S_HDMV/PGS
  329. Codec ID/Info                            : Picture based subtitle format used on BDs/HD-DVDs
  330. Duration                                 : 1 h 58 min
  331. Bit rate                                 : 34.2 kb/s
  332. Count of elements                        : 2672
  333. Stream size                              : 29.0 MiB (0%)
  334. Title                                    : Italian-PGS
  335. Language                                 : Italian
  336. Default                                  : No
  337. Forced                                   : No
  338. Text #19
  339. ID                                       : 23
  340. Format                                   : PGS
  341. Muxing mode                              : zlib
  342. Codec ID                                 : S_HDMV/PGS
  343. Codec ID/Info                            : Picture based subtitle format used on BDs/HD-DVDs
  344. Duration                                 : 1 h 53 min
  345. Bit rate                                 : 23.4 kb/s
  346. Count of elements                        : 2642
  347. Stream size                              : 19.0 MiB (0%)
  348. Title                                    : Japanese-PGS
  349. Language                                 : Japanese
  350. Default                                  : No
  351. Forced                                   : No
  352. Text #20
  353. ID                                       : 24
  354. Format                                   : PGS
  355. Muxing mode                              : zlib
  356. Codec ID                                 : S_HDMV/PGS
  357. Codec ID/Info                            : Picture based subtitle format used on BDs/HD-DVDs
  358. Duration                                 : 1 h 59 min
  359. Bit rate                                 : 23.5 kb/s
  360. Count of elements                        : 2716
  361. Stream size                              : 20.1 MiB (0%)
  362. Title                                    : Korean-PGS
  363. Language                                 : Korean
  364. Default                                  : No
  365. Forced                                   : No
  366. Text #21
  367. ID                                       : 25
  368. Format                                   : PGS
  369. Muxing mode                              : zlib
  370. Codec ID                                 : S_HDMV/PGS
  371. Codec ID/Info                            : Picture based subtitle format used on BDs/HD-DVDs
  372. Duration                                 : 1 h 58 min
  373. Bit rate                                 : 39.2 kb/s
  374. Count of elements                        : 2696
  375. Stream size                              : 33.2 MiB (0%)
  376. Title                                    : Malay-PGS
  377. Language                                 : Malay
  378. Default                                  : No
  379. Forced                                   : No
  380. Text #22
  381. ID                                       : 26
  382. Format                                   : PGS
  383. Muxing mode                              : zlib
  384. Codec ID                                 : S_HDMV/PGS
  385. Codec ID/Info                            : Picture based subtitle format used on BDs/HD-DVDs
  386. Duration                                 : 1 h 58 min
  387. Bit rate                                 : 29.1 kb/s
  388. Count of elements                        : 2650
  389. Stream size                              : 24.7 MiB (0%)
  390. Title                                    : Norwegian-PGS
  391. Language                                 : Norwegian
  392. Default                                  : No
  393. Forced                                   : No
  394. Text #23
  395. ID                                       : 27
  396. Format                                   : PGS
  397. Muxing mode                              : zlib
  398. Codec ID                                 : S_HDMV/PGS
  399. Codec ID/Info                            : Picture based subtitle format used on BDs/HD-DVDs
  400. Duration                                 : 1 h 58 min
  401. Bit rate                                 : 31.5 kb/s
  402. Count of elements                        : 2694
  403. Stream size                              : 26.7 MiB (0%)
  404. Title                                    : Polish-PGS
  405. Language                                 : Polish
  406. Default                                  : No
  407. Forced                                   : No
  408. Text #24
  409. ID                                       : 28
  410. Format                                   : PGS
  411. Muxing mode                              : zlib
  412. Codec ID                                 : S_HDMV/PGS
  413. Codec ID/Info                            : Picture based subtitle format used on BDs/HD-DVDs
  414. Duration                                 : 1 h 58 min
  415. Bit rate                                 : 33.8 kb/s
  416. Count of elements                        : 2692
  417. Stream size                              : 28.6 MiB (0%)
  418. Title                                    : Portuguese-PGS
  419. Language                                 : Portuguese
  420. Default                                  : No
  421. Forced                                   : No
  422. Text #25
  423. ID                                       : 29
  424. Format                                   : PGS
  425. Muxing mode                              : zlib
  426. Codec ID                                 : S_HDMV/PGS
  427. Codec ID/Info                            : Picture based subtitle format used on BDs/HD-DVDs
  428. Duration                                 : 1 h 58 min
  429. Bit rate                                 : 31.7 kb/s
  430. Count of elements                        : 2698
  431. Stream size                              : 26.8 MiB (0%)
  432. Title                                    : Romanian-PGS
  433. Language                                 : Romanian
  434. Default                                  : No
  435. Forced                                   : No
  436. Text #26
  437. ID                                       : 30
  438. Format                                   : PGS
  439. Muxing mode                              : zlib
  440. Codec ID                                 : S_HDMV/PGS
  441. Codec ID/Info                            : Picture based subtitle format used on BDs/HD-DVDs
  442. Duration                                 : 1 h 59 min
  443. Bit rate                                 : 33.5 kb/s
  444. Count of elements                        : 2722
  445. Stream size                              : 28.7 MiB (0%)
  446. Title                                    : Russian-PGS
  447. Language                                 : Russian
  448. Default                                  : No
  449. Forced                                   : No
  450. Text #27
  451. ID                                       : 31
  452. Format                                   : PGS
  453. Muxing mode                              : zlib
  454. Codec ID                                 : S_HDMV/PGS
  455. Codec ID/Info                            : Picture based subtitle format used on BDs/HD-DVDs
  456. Duration                                 : 1 h 58 min
  457. Bit rate                                 : 28.6 kb/s
  458. Count of elements                        : 2678
  459. Stream size                              : 24.2 MiB (0%)
  460. Title                                    : Slovak-PGS
  461. Language                                 : Slovak
  462. Default                                  : No
  463. Forced                                   : No
  464. Text #28
  465. ID                                       : 32
  466. Format                                   : PGS
  467. Muxing mode                              : zlib
  468. Codec ID                                 : S_HDMV/PGS
  469. Codec ID/Info                            : Picture based subtitle format used on BDs/HD-DVDs
  470. Duration                                 : 1 h 58 min
  471. Bit rate                                 : 34.8 kb/s
  472. Count of elements                        : 2700
  473. Stream size                              : 29.5 MiB (0%)
  474. Title                                    : Spanish-PGS
  475. Language                                 : Spanish
  476. Default                                  : No
  477. Forced                                   : No
  478. Text #29
  479. ID                                       : 33
  480. Format                                   : PGS
  481. Muxing mode                              : zlib
  482. Codec ID                                 : S_HDMV/PGS
  483. Codec ID/Info                            : Picture based subtitle format used on BDs/HD-DVDs
  484. Duration                                 : 1 h 58 min
  485. Bit rate                                 : 33.4 kb/s
  486. Count of elements                        : 2700
  487. Stream size                              : 28.3 MiB (0%)
  488. Title                                    : Spanish-PGS
  489. Language                                 : Spanish
  490. Default                                  : No
  491. Forced                                   : No
  492. Text #30
  493. ID                                       : 34
  494. Format                                   : PGS
  495. Muxing mode                              : zlib
  496. Codec ID                                 : S_HDMV/PGS
  497. Codec ID/Info                            : Picture based subtitle format used on BDs/HD-DVDs
  498. Duration                                 : 1 h 58 min
  499. Bit rate                                 : 30.5 kb/s
  500. Count of elements                        : 2662
  501. Stream size                              : 25.9 MiB (0%)
  502. Title                                    : Swedish-PGS
  503. Language                                 : Swedish
  504. Default                                  : No
  505. Forced                                   : No
  506. Text #31
  507. ID                                       : 35
  508. Format                                   : PGS
  509. Muxing mode                              : zlib
  510. Codec ID                                 : S_HDMV/PGS
  511. Codec ID/Info                            : Picture based subtitle format used on BDs/HD-DVDs
  512. Duration                                 : 1 h 59 min
  513. Bit rate                                 : 26.1 kb/s
  514. Count of elements                        : 2716
  515. Stream size                              : 22.3 MiB (0%)
  516. Title                                    : Thai-PGS
  517. Language                                 : Thai
  518. Default                                  : No
  519. Forced                                   : No
  520. Text #32
  521. ID                                       : 36
  522. Format                                   : PGS
  523. Muxing mode                              : zlib
  524. Codec ID                                 : S_HDMV/PGS
  525. Codec ID/Info                            : Picture based subtitle format used on BDs/HD-DVDs
  526. Duration                                 : 1 h 58 min
  527. Bit rate                                 : 34.5 kb/s
  528. Count of elements                        : 2700
  529. Stream size                              : 29.3 MiB (0%)
  530. Title                                    : Turkish-PGS
  531. Language                                 : Turkish
  532. Default                                  : No
  533. Forced                                   : No
  534. Menu
  535. 00:00:00.000                             : en:Chapter 01
  536. 00:05:50.725                             : en:Chapter 02
  537. 00:11:20.805                             : en:Chapter 03
  538. 00:18:43.080                             : en:Chapter 04
  539. 00:22:39.858                             : en:Chapter 05
  540. 00:28:01.054                             : en:Chapter 06
  541. 00:34:21.393                             : en:Chapter 07
  542. 00:38:35.230                             : en:Chapter 08
  543. 00:42:52.445                             : en:Chapter 09
  544. 00:50:40.579                             : en:Chapter 10
  545. 00:57:30.906                             : en:Chapter 11
  546. 01:04:06.176                             : en:Chapter 12
  547. 01:09:28.915                             : en:Chapter 13
  548. 01:16:10.941                             : en:Chapter 14
  549. 01:24:44.079                             : en:Chapter 15
  550. 01:29:09.344                             : en:Chapter 16
  551. 01:35:22.383                             : en:Chapter 17
  552. 01:42:46.243                             : en:Chapter 18
  553. 01:51:11.832                             : en:Chapter 19
  554. 01:55:25.335                             : en:Chapter 20
复制代码










                                       
                                       

                                       
                                       
                                       




相关帖子

回复

使用道具 举报

懒得打字嘛,点击右侧快捷回复 【右侧内容,后台自定义】
您需要登录后才可以回帖 登录 | 立即加入

本版积分规则

Copyright © 2024 Comsenz Inc. Powered by 蓝光电影网

本站内容由用户自主分享和转载自互联网,转载目的在于传递更多信息,并不代表本网赞同其观点和对其真实性负责。

如有侵权、违反国家法律政策行为,请联系我们,我们会第一时间及时清除和处理!

举报反馈邮箱:4k1080.com@gmail.com

快速回复 返回顶部 返回列表