找回密码

查看: 1314|回复: 0

[UHD.HEVC] 蝙蝠侠:缄默 Batman.Hush.2019.2160p.BluRay.REMUX.HEVC.DTS-HD.MA.5.1-FGT 54.04GB

[复制链接]
蓝光币
1848
发表于 2019-8-6 10:56:29 | 显示全部楼层 |阅读模式


◎译  名 蝙蝠侠:沉默
◎片  名 Batman: Hush
◎年  代 2019
◎产  地 美国
◎类  别 动画
◎语  言 英语
◎上映日期 2019-07-20(美国)
◎IMDb链接  http://www.imdb.com/title/tt8752440
◎豆瓣评分 0/10 from 0 users
◎豆瓣链接 https://movie.douban.com/subject/30286712/
◎导  演 Justin Copeland
◎编  剧 厄尼·阿特巴克 Ernie Altbacker / 杰夫·洛布 Jeph Loeb / 吉姆·李 Jim Lee
◎主  演 杰森·奥玛拉 Jason O'Mara
      佩顿·利斯特 Peyton List
      莫瑞·史特林 Maury Sterling
      杰森·斯皮萨克 Jason Spisak
      佩顿·李斯特 Peyton R. List
      丽贝卡·罗梅恩 Rebecca Romijn
      詹妮弗·莫里森 Jennifer Morrison
      雷恩·威尔森 Rainn Wilson
      杰瑞·奥康奈尔 Jerry O'Connell
      塔拉·斯特朗 Tara Strong
      凡妮莎·威廉斯 Vanessa Williams
      吉奥弗瑞·阿伦德 Geoffrey Arend
      肖恩·马希尔 Sean Maher
      布鲁斯·托马斯 Bruce Thomas
      斯图尔特·艾伦 Stuart Allan

◎标  签 DC | 蝙蝠侠 | DC动漫 | 动画 | DC动画 | 2019 | 美国 | 待看
◎简  介  
  影片改编自同名漫画,原著漫画报告一个奥秘的跟踪者名叫“沉默”,他似乎筹算从远处暗杀蝙蝠侠。故事中有很多客串脚色,其中包括了大量的蝙蝠侠反派,还有多位蝙蝠家属的成员以及和蝙蝠侠的老战友,超人。它还摸索了蝙蝠侠和猫女之间的暗昧情愫。
  1. Video
  2. ID                                       : 1
  3. Format                                   : HEVC
  4. Format/Info                              : High Efficiency Video Coding
  5. Format profile                           : Main [email protected]@High
  6. HDR format                               : SMPTE ST 2086, HDR10 compatible
  7. Codec ID                                 : V_MPEGH/ISO/HEVC
  8. Duration                                 : 1 h 22 min
  9. Bit rate                                 : 90.7 Mb/s
  10. Width                                    : 3 840 pixels
  11. Height                                   : 2 160 pixels
  12. Display aspect ratio                     : 16:9
  13. Frame rate mode                          : Constant
  14. Frame rate                               : 23.976 (24000/1001) FPS
  15. Color space                              : YUV
  16. Chroma subsampling                       : 4:2:0 (Type 2)
  17. Bit depth                                : 10 bits
  18. Bits/(Pixel*Frame)                       : 0.456
  19. Stream size                              : 51.9 GiB (96%)
  20. Title                                    : Batman.Hush.2019.2160p.BluRay.REMUX.HEVC.DTS-HD.MA.5.1-FGT
  21. Writing library                          : ATEME Titan File 3.9.0 (4.9.0.0)        
  22. Language                                 : English
  23. Default                                  : No
  24. Forced                                   : No
  25. Color range                              : Limited
  26. Color primaries                          : BT.2020
  27. Transfer characteristics                 : PQ
  28. Matrix coefficients                      : BT.2020 non-constant
  29. Mastering display color primaries        : Display P3
  30. Mastering display luminance              : min: 0.0050 cd/m2, max: 4000 cd/m2
  31. Maximum Content Light Level              : 658 cd/m2
  32. Maximum Frame-Average Light Level        : 265 cd/m2
  33. Audio #1
  34. ID                                       : 2
  35. Format                                   : DTS XLL
  36. Format/Info                              : Digital Theater Systems
  37. Commercial name                          : DTS-HD Master Audio
  38. Codec ID                                 : A_DTS
  39. Duration                                 : 1 h 22 min
  40. Bit rate mode                            : Variable
  41. Bit rate                                 : 2 349 kb/s
  42. Channel(s)                               : 6 channels
  43. Channel layout                           : C L R Ls Rs LFE
  44. Sampling rate                            : 48.0 kHz
  45. Frame rate                               : 93.750 FPS (512 SPF)
  46. Bit depth                                : 24 bits
  47. Compression mode                         : Lossless
  48. Stream size                              : 1.35 GiB (2%)
  49. Title                                    : Batman.Hush.2019.2160p.BluRay.REMUX.HEVC.DTS-HD.MA.5.1-FGT
  50. Language                                 : English
  51. Default                                  : Yes
  52. Forced                                   : No
  53. Audio #2
  54. ID                                       : 3
  55. Format                                   : AC-3
  56. Format/Info                              : Audio Coding 3
  57. Commercial name                          : Dolby Digital
  58. Codec ID                                 : A_AC3
  59. Duration                                 : 1 h 22 min
  60. Bit rate mode                            : Constant
  61. Bit rate                                 : 640 kb/s
  62. Channel(s)                               : 6 channels
  63. Channel layout                           : L R C LFE Ls Rs
  64. Sampling rate                            : 48.0 kHz
  65. Frame rate                               : 31.250 FPS (1536 SPF)
  66. Bit depth                                : 16 bits
  67. Compression mode                         : Lossy
  68. Stream size                              : 375 MiB (1%)
  69. Title                                    : Batman.Hush.2019.2160p.BluRay.REMUX.HEVC.DTS-HD.MA.5.1-FGT
  70. Language                                 : French
  71. Service kind                             : Complete Main
  72. Default                                  : No
  73. Forced                                   : No
  74. Audio #3
  75. ID                                       : 4
  76. Format                                   : AC-3
  77. Format/Info                              : Audio Coding 3
  78. Commercial name                          : Dolby Digital
  79. Codec ID                                 : A_AC3
  80. Duration                                 : 1 h 22 min
  81. Bit rate mode                            : Constant
  82. Bit rate                                 : 640 kb/s
  83. Channel(s)                               : 6 channels
  84. Channel layout                           : L R C LFE Ls Rs
  85. Sampling rate                            : 48.0 kHz
  86. Frame rate                               : 31.250 FPS (1536 SPF)
  87. Bit depth                                : 16 bits
  88. Compression mode                         : Lossy
  89. Stream size                              : 375 MiB (1%)
  90. Title                                    : Batman.Hush.2019.2160p.BluRay.REMUX.HEVC.DTS-HD.MA.5.1-FGT
  91. Language                                 : Spanish
  92. Service kind                             : Complete Main
  93. Default                                  : No
  94. Forced                                   : No
  95. Text #1
  96. ID                                       : 5
  97. Format                                   : UTF-8
  98. Codec ID                                 : S_TEXT/UTF8
  99. Codec ID/Info                            : UTF-8 Plain Text
  100. Duration                                 : 1 h 17 min
  101. Bit rate                                 : 49 b/s
  102. Count of elements                        : 1021
  103. Stream size                              : 28.3 KiB (0%)
  104. Title                                    : English-SRT
  105. Language                                 : English
  106. Default                                  : Yes
  107. Forced                                   : No
  108. Text #2
  109. ID                                       : 6
  110. Format                                   : PGS
  111. Muxing mode                              : zlib
  112. Codec ID                                 : S_HDMV/PGS
  113. Codec ID/Info                            : Picture based subtitle format used on BDs/HD-DVDs
  114. Duration                                 : 1 h 17 min
  115. Bit rate                                 : 32.1 kb/s
  116. Count of elements                        : 2344
  117. Stream size                              : 17.9 MiB (0%)
  118. Title                                    : English-PGS
  119. Language                                 : English
  120. Default                                  : No
  121. Forced                                   : No
  122. Text #3
  123. ID                                       : 7
  124. Format                                   : PGS
  125. Muxing mode                              : zlib
  126. Codec ID                                 : S_HDMV/PGS
  127. Codec ID/Info                            : Picture based subtitle format used on BDs/HD-DVDs
  128. Duration                                 : 1 h 20 min
  129. Bit rate                                 : 30.8 kb/s
  130. Count of elements                        : 2014
  131. Stream size                              : 17.8 MiB (0%)
  132. Title                                    : French-PGS
  133. Language                                 : French
  134. Default                                  : No
  135. Forced                                   : No
  136. Text #4
  137. ID                                       : 8
  138. Format                                   : PGS
  139. Muxing mode                              : zlib
  140. Codec ID                                 : S_HDMV/PGS
  141. Codec ID/Info                            : Picture based subtitle format used on BDs/HD-DVDs
  142. Duration                                 : 1 h 20 min
  143. Bit rate                                 : 28.5 kb/s
  144. Count of elements                        : 2010
  145. Stream size                              : 16.5 MiB (0%)
  146. Title                                    : Spanish-PGS
  147. Language                                 : Spanish
  148. Default                                  : No
  149. Forced                                   : No
  150. Text #5
  151. ID                                       : 9
  152. Format                                   : PGS
  153. Muxing mode                              : zlib
  154. Codec ID                                 : S_HDMV/PGS
  155. Codec ID/Info                            : Picture based subtitle format used on BDs/HD-DVDs
  156. Duration                                 : 55 min 30 s
  157. Bit rate                                 : 377 b/s
  158. Count of elements                        : 22
  159. Stream size                              : 154 KiB (0%)
  160. Title                                    : French-FORCED-PGS
  161. Language                                 : French
  162. Default                                  : No
  163. Forced                                   : No
  164. Text #6
  165. ID                                       : 10
  166. Format                                   : PGS
  167. Muxing mode                              : zlib
  168. Codec ID                                 : S_HDMV/PGS
  169. Codec ID/Info                            : Picture based subtitle format used on BDs/HD-DVDs
  170. Duration                                 : 29 min 49 s
  171. Bit rate                                 : 300 b/s
  172. Count of elements                        : 8
  173. Stream size                              : 65.6 KiB (0%)
  174. Title                                    : Spanish-FORCED-PGS
  175. Language                                 : Spanish
  176. Default                                  : No
  177. Forced                                   : No
  178. Menu
  179. 00:00:00.000                             : en:Chapter 01
  180. 00:09:59.640                             : en:Chapter 02
  181. 00:18:57.219                             : en:Chapter 03
  182. 00:28:53.940                             : en:Chapter 04
  183. 00:37:32.750                             : en:Chapter 05
  184. 00:44:44.473                             : en:Chapter 06
  185. 00:50:49.546                             : en:Chapter 07
  186. 00:59:12.966                             : en:Chapter 08
  187. 01:07:58.908                             : en:Chapter 09
  188. 01:16:19.116                             : en:Chapter 10
  189. 01:18:54.312                             : en:Chapter 11
复制代码






                                       
                                       

                                       
                                       
                                       




回复

使用道具 举报

懒得打字嘛,点击右侧快捷回复 【右侧内容,后台自定义】
您需要登录后才可以回帖 登录 | 立即加入

本版积分规则

Copyright © 2024 Comsenz Inc. Powered by 蓝光电影网

本站内容由用户自主分享和转载自互联网,转载目的在于传递更多信息,并不代表本网赞同其观点和对其真实性负责。

如有侵权、违反国家法律政策行为,请联系我们,我们会第一时间及时清除和处理!

举报反馈邮箱:4k1080.com@gmail.com

快速回复 返回顶部 返回列表