找回密码

查看: 1137|回复: 0

[UHD.HEVC] 威尼斯疑魂/小妖女 Dont.Look.Now.1973.2160p.BluRay.REMUX.HEVC.DTS-HD.MA.2.0-FGT 70.94GB

[复制链接]
蓝光币
1856
发表于 2019-7-30 06:25:36 | 显示全部楼层 |阅读模式


◎译  名 威尼斯疑魂 / 小妖女 / 现在不要看 / 现在别看 / 血光鬼影夺命刀
◎片  名 Don't Look Now
◎年  代 1973
◎产  地 英国 / 意大利
◎类  别 剧情 / 悬疑 / 可骇
◎语  言 英语 / 意大利语
◎上映日期 1973-12-09
◎IMDb评分  7.3/10 from 43504 users
◎IMDb链接  http://www.imdb.com/title/tt0069995
◎豆瓣评分 7.1/10 from 2280 users
◎豆瓣链接 https://movie.douban.com/subject/1302294/
◎片  长 110 分钟
◎导  演 Nicolas Roeg
◎编  剧 Allan Scott / Chris Bryant
◎主  演 Julie Christie
      Donald Sutherland
      Hilary Mason
      Clelia Matania
      Massimo Serato

◎标  签 英国 | 惊悚 | 意大利 | 可骇 | 悬疑 | 1973 | 1970s | 英国电影
◎简  介  
  修建师John Baxter(唐纳德·萨瑟兰 Donald Sutherland 饰)与其妻子Laura(朱莉·克里斯蒂 Julie Christie 饰)育有一男一女。有一天,女儿稀里糊涂地溺水身亡。Laura沉醉在悲痛中。John由于工作缘由,带着Laura来到威尼斯,停止一个教堂的修缮工作。在那边,Laura熟悉了两个老太婆,里面有一个盲人,听说能通灵,能看见Baxter佳耦的女儿。Laura晕了曩昔,醒来以后却摆脱了女儿灭亡的阴影。通灵的老太婆告诉Laura,假如John继续留在威尼斯的话,会有危险。Laura劝John赶紧分开,John却不相信所谓通灵,继续留在威尼斯停止工作。果不其然,John在工作中发生了意外,而他们在英国念书的儿子病倒了。Laura急忙搭飞机返国,而John却在威尼斯发现Laura跟那两个老太婆在一路。发生在威尼斯的这个故事变得越来越扑朔迷离......本片在Time Out 2011“史上最好100部英国电影”中排名第一。
  1. Video #1
  2. ID                                       : 1
  3. Format                                   : HEVC
  4. Format/Info                              : High Efficiency Video Coding
  5. Format profile                           : Main [email protected]@High
  6. HDR format                               : SMPTE ST 2086, HDR10 compatible
  7. Codec ID                                 : V_MPEGH/ISO/HEVC
  8. Duration                                 : 1 h 50 min
  9. Bit rate                                 : 88.9 Mb/s
  10. Width                                    : 3 840 pixels
  11. Height                                   : 2 160 pixels
  12. Display aspect ratio                     : 16:9
  13. Frame rate mode                          : Constant
  14. Frame rate                               : 24.000 FPS
  15. Color space                              : YUV
  16. Chroma subsampling                       : 4:2:0 (Type 2)
  17. Bit depth                                : 10 bits
  18. Bits/(Pixel*Frame)                       : 0.447
  19. Stream size                              : 68.5 GiB (97%)
  20. Title                                    : Dont.Look.Now.1973.2160p.BluRay.REMUX.HEVC.DTS-HD.MA.2.0-FGT
  21. Writing library                          : x265 3.1b36c03e4e771:[Windows][GCC 6.3.0][64 bit] 10bit
  22. Encoding settings                        : cpuid=1111039 / frame-threads=6 / numa-pools=16,16 / wpp / no-pmode / no-pme / no-psnr / no-ssim / log-level=2 / csv / csv-log-level=1 / input-csp=1 / input-res=3840x2160 / interlace=0 / total-frames=19069 / level-idc=51 / high-tier=1 / uhd-bd=1 / ref=5 / no-allow-non-conformance / repeat-headers / annexb / aud / hrd / info / hash=0 / no-temporal-layers / no-open-gop / min-keyint=1 / keyint=24 / gop-lookahead=0 / bframes=3 / b-adapt=2 / b-pyramid / bframe-bias=0 / rc-lookahead=24 / lookahead-slices=0 / scenecut=20 / radl=0 / no-splice / no-intra-refresh / ctu=64 / min-cu-size=8 / rect / amp / max-tu-size=32 / tu-inter-depth=3 / tu-intra-depth=3 / limit-tu=4 / rdoq-level=2 / dynamic-rd=0.00 / no-ssim-rd / signhide / no-tskip / nr-intra=0 / nr-inter=0 / no-constrained-intra / no-strong-intra-smoothing / max-merge=4 / limit-refs=1 / limit-modes / me=3 / subme=7 / merange=57 / temporal-mvp / weightp / weightb / no-analyze-src-pics / deblock=0:0 / no-sao / no-sao-non-deblock / rd=6 / no-early-skip / no-rskip / no-fast-intra / no-tskip-fast / no-cu-lossless / b-intra / no-splitrd-skip / rdpenalty=0 / psy-rd=3.00 / psy-rdoq=1.00 / no-rd-refine / no-lossless / cbqpoffs=0 / crqpoffs=0 / rc=cbr / bitrate=89000 / qcomp=0.60 / qpstep=1 / stats-write=1 / stats-read=0 / slow-firstpass / vbv-maxrate=89000 / vbv-bufsize=99000 / vbv-init=0.9 / ipratio=1.40 / pbratio=1.30 / aq-mode=2 / aq-strength=0.50 / no-cutree / zone-count=2 / zones: / start-frame=2177 / end-frame=2378 / bitrate-factor=1.500000 / zones: / start-frame=14452 / end-frame=14513 / bitrate-factor=1.500000 / no-strict-cbr / qg-size=32 / no-rc-grain / qpmax=69 / qpmin=0 / no-const-vbv / sar=1 / overscan=0 / videoformat=5 / range=0 / colorprim=9 / transfer=16 / colormatrix=9 / chromaloc=1 / chromaloc-top=2 / chromaloc-bottom=2 / display-window=0 / master-display=G(13250,34500)B(7500,3000)R(34000,16000)WP(15635,16450)L(10000000,1)cll=0,0 / min-luma=0 / max-luma=1023 / log2-max-poc-lsb=8 / vui-timing-info / vui-hrd-info / slices=1 / no-opt-qp-pps / no-opt-ref-list-length-pps / no-multi-pass-opt-rps / scenecut-bias=0.05 / no-opt-cu-delta-qp / no-aq-motion / hdr / hdr-opt / no-dhdr10-opt / no-idr-recovery-sei / analysis-reuse-level=5 / scale-factor=0 / refine-intra=0 / refine-inter=0 / refine-mv=0 / refine-ctu-distortion=0 / no-limit-sao / ctu-info=0 / no-lowpass-dct / refine-analysis-type=0 / copy-pic=1 / max-ausize-factor=1.0 / no-dynamic-refine / no-single-sei / no-hevc-aq / no-svt / no-field / qp-adaptation-range=1.00
  23. Language                                 : English
  24. Default                                  : Yes
  25. Forced                                   : No
  26. Color range                              : Limited
  27. Color primaries                          : BT.2020
  28. Transfer characteristics                 : PQ
  29. Matrix coefficients                      : BT.2020 non-constant
  30. Mastering display color primaries        : Display P3
  31. Mastering display luminance              : min: 0.0001 cd/m2, max: 1000 cd/m2
  32. Video #2
  33. ID                                       : 2
  34. Format                                   : HEVC
  35. Format/Info                              : High Efficiency Video Coding
  36. Format profile                           : Main [email protected]@High
  37. HDR format                               : SMPTE ST 2086, HDR10 compatible
  38. Codec ID                                 : V_MPEGH/ISO/HEVC
  39. Duration                                 : 1 h 50 min
  40. Bit rate                                 : 81.1 kb/s
  41. Width                                    : 1 920 pixels
  42. Height                                   : 1 080 pixels
  43. Display aspect ratio                     : 16:9
  44. Frame rate mode                          : Constant
  45. Frame rate                               : 24.000 FPS
  46. Color space                              : YUV
  47. Chroma subsampling                       : 4:2:0 (Type 2)
  48. Bit depth                                : 10 bits
  49. Bits/(Pixel*Frame)                       : 0.002
  50. Stream size                              : 64.0 MiB (0%)
  51. Title                                    : Dont.Look.Now.1973.2160p.BluRay.REMUX.HEVC.DTS-HD.MA.2.0-FGT
  52. Writing library                          : x265 3.1b36c03e4e771:[Windows][GCC 6.3.0][64 bit] 10bit
  53. Encoding settings                        : cpuid=1111039 / frame-threads=5 / numa-pools=32,0 / wpp / no-pmode / no-pme / no-psnr / no-ssim / log-level=2 / csv / csv-log-level=1 / input-csp=1 / input-res=1920x1080 / interlace=0 / total-frames=19069 / level-idc=51 / high-tier=1 / uhd-bd=1 / ref=3 / no-allow-non-conformance / repeat-headers / annexb / aud / hrd / info / hash=0 / no-temporal-layers / no-open-gop / min-keyint=1 / keyint=24 / gop-lookahead=0 / bframes=3 / b-adapt=2 / b-pyramid / bframe-bias=0 / rc-lookahead=24 / lookahead-slices=6 / scenecut=40 / radl=0 / no-splice / no-intra-refresh / ctu=64 / min-cu-size=8 / no-rect / no-amp / max-tu-size=32 / tu-inter-depth=1 / tu-intra-depth=1 / limit-tu=0 / rdoq-level=0 / dynamic-rd=0.00 / no-ssim-rd / signhide / no-tskip / nr-intra=0 / nr-inter=0 / no-constrained-intra / strong-intra-smoothing / max-merge=3 / limit-refs=1 / no-limit-modes / me=1 / subme=2 / merange=57 / temporal-mvp / weightp / no-weightb / no-analyze-src-pics / deblock=0:0 / sao / no-sao-non-deblock / rd=3 / early-skip / rskip / no-fast-intra / no-tskip-fast / no-cu-lossless / b-intra / no-splitrd-skip / rdpenalty=0 / psy-rd=2.00 / psy-rdoq=0.00 / no-rd-refine / no-lossless / cbqpoffs=0 / crqpoffs=0 / rc=cbr / bitrate=500 / qcomp=0.60 / qpstep=4 / stats-write=0 / stats-read=0 / vbv-maxrate=500 / vbv-bufsize=550 / vbv-init=0.9 / ipratio=1.40 / pbratio=1.30 / aq-mode=2 / aq-strength=1.00 / cutree / zone-count=0 / no-strict-cbr / qg-size=32 / no-rc-grain / qpmax=69 / qpmin=0 / no-const-vbv / sar=1 / overscan=0 / videoformat=5 / range=0 / colorprim=9 / transfer=16 / colormatrix=9 / chromaloc=1 / chromaloc-top=2 / chromaloc-bottom=2 / display-window=0 / master-display=G(13250,34500)B(7500,3000)R(34000,16000)WP(15635,16450)L(10000000,1)cll=0,0 / min-luma=0 / max-luma=1023 / log2-max-poc-lsb=8 / vui-timing-info / vui-hrd-info / slices=1 / no-opt-qp-pps / no-opt-ref-list-length-pps / no-multi-pass-opt-rps / scenecut-bias=0.05 / no-opt-cu-delta-qp / no-aq-motion / hdr / hdr-opt / no-dhdr10-opt / no-idr-recovery-sei / analysis-reuse-level=5 / scale-factor=0 / refine-intra=0 / refine-inter=0 / refine-mv=0 / refine-ctu-distortion=0 / no-limit-sao / ctu-info=0 / no-lowpass-dct / refine-analysis-type=0 / copy-pic=1 / max-ausize-factor=1.0 / no-dynamic-refine / no-single-sei / no-hevc-aq / no-svt / no-field / qp-adaptation-range=1.00
  54. Language                                 : English
  55. Default                                  : No
  56. Forced                                   : No
  57. Color range                              : Limited
  58. Color primaries                          : BT.2020
  59. Transfer characteristics                 : PQ
  60. Matrix coefficients                      : BT.2020 non-constant
  61. Mastering display color primaries        : Display P3
  62. Mastering display luminance              : min: 0.0001 cd/m2, max: 1000 cd/m2
  63. Audio #1
  64. ID                                       : 3
  65. Format                                   : DTS XLL
  66. Format/Info                              : Digital Theater Systems
  67. Commercial name                          : DTS-HD Master Audio
  68. Codec ID                                 : A_DTS
  69. Duration                                 : 1 h 50 min
  70. Bit rate mode                            : Variable
  71. Bit rate                                 : 1 479 kb/s
  72. Channel(s)                               : 2 channels
  73. Channel layout                           : L R
  74. Sampling rate                            : 48.0 kHz
  75. Frame rate                               : 93.750 FPS (512 SPF)
  76. Bit depth                                : 24 bits
  77. Compression mode                         : Lossless
  78. Stream size                              : 1.14 GiB (2%)
  79. Title                                    : Dont.Look.Now.1973.2160p.BluRay.REMUX.HEVC.DTS-HD.MA.2.0-FGT
  80. Language                                 : English
  81. Default                                  : Yes
  82. Forced                                   : No
  83. Audio #2
  84. ID                                       : 4
  85. Format                                   : DTS XLL
  86. Format/Info                              : Digital Theater Systems
  87. Commercial name                          : DTS-HD Master Audio
  88. Codec ID                                 : A_DTS
  89. Duration                                 : 1 h 50 min
  90. Bit rate mode                            : Variable
  91. Bit rate                                 : 1 441 kb/s
  92. Channel(s)                               : 2 channels
  93. Channel layout                           : L R
  94. Sampling rate                            : 48.0 kHz
  95. Frame rate                               : 93.750 FPS (512 SPF)
  96. Bit depth                                : 24 bits
  97. Compression mode                         : Lossless
  98. Stream size                              : 1.11 GiB (2%)
  99. Title                                    : Dont.Look.Now.1973.2160p.BluRay.REMUX.HEVC.DTS-HD.MA.2.0-FGT
  100. Language                                 : German
  101. Default                                  : No
  102. Forced                                   : No
  103. Audio #3
  104. ID                                       : 5
  105. Format                                   : AC-3
  106. Format/Info                              : Audio Coding 3
  107. Commercial name                          : Dolby Digital
  108. Codec ID                                 : A_AC3
  109. Duration                                 : 1 h 50 min
  110. Bit rate mode                            : Constant
  111. Bit rate                                 : 192 kb/s
  112. Channel(s)                               : 2 channels
  113. Channel layout                           : L R
  114. Sampling rate                            : 48.0 kHz
  115. Frame rate                               : 31.250 FPS (1536 SPF)
  116. Bit depth                                : 16 bits
  117. Compression mode                         : Lossy
  118. Stream size                              : 151 MiB (0%)
  119. Title                                    : Dont.Look.Now.1973.2160p.BluRay.REMUX.HEVC.DTS-HD.MA.2.0-FGT
  120. Language                                 : English
  121. Service kind                             : Complete Main
  122. Default                                  : No
  123. Forced                                   : No
  124. Text #1
  125. ID                                       : 6
  126. Format                                   : UTF-8
  127. Codec ID                                 : S_TEXT/UTF8
  128. Codec ID/Info                            : UTF-8 Plain Text
  129. Duration                                 : 1 h 44 min
  130. Bit rate                                 : 32 b/s
  131. Count of elements                        : 777
  132. Stream size                              : 25.2 KiB (0%)
  133. Title                                    : English-SRT
  134. Language                                 : English
  135. Default                                  : Yes
  136. Forced                                   : No
  137. Text #2
  138. ID                                       : 7
  139. Format                                   : UTF-8
  140. Codec ID                                 : S_TEXT/UTF8
  141. Codec ID/Info                            : UTF-8 Plain Text
  142. Duration                                 : 1 h 44 min
  143. Bit rate                                 : 35 b/s
  144. Count of elements                        : 883
  145. Stream size                              : 27.1 KiB (0%)
  146. Title                                    : English-SDH-SRT
  147. Language                                 : English
  148. Default                                  : No
  149. Forced                                   : No
  150. Text #3
  151. ID                                       : 8
  152. Format                                   : PGS
  153. Muxing mode                              : zlib
  154. Codec ID                                 : S_HDMV/PGS
  155. Codec ID/Info                            : Picture based subtitle format used on BDs/HD-DVDs
  156. Duration                                 : 1 h 44 min
  157. Bit rate                                 : 22.1 kb/s
  158. Count of elements                        : 1766
  159. Stream size                              : 16.6 MiB (0%)
  160. Title                                    : English-PGS
  161. Language                                 : English
  162. Default                                  : No
  163. Forced                                   : No
  164. Text #4
  165. ID                                       : 9
  166. Format                                   : PGS
  167. Muxing mode                              : zlib
  168. Codec ID                                 : S_HDMV/PGS
  169. Codec ID/Info                            : Picture based subtitle format used on BDs/HD-DVDs
  170. Duration                                 : 1 h 44 min
  171. Bit rate                                 : 21.6 kb/s
  172. Count of elements                        : 1600
  173. Stream size                              : 16.2 MiB (0%)
  174. Title                                    : German-PGS
  175. Language                                 : German
  176. Default                                  : No
  177. Forced                                   : No
  178. Text #5
  179. ID                                       : 10
  180. Format                                   : PGS
  181. Muxing mode                              : zlib
  182. Codec ID                                 : S_HDMV/PGS
  183. Codec ID/Info                            : Picture based subtitle format used on BDs/HD-DVDs
  184. Duration                                 : 1 h 36 min
  185. Bit rate                                 : 3 042 b/s
  186. Count of elements                        : 246
  187. Stream size                              : 2.10 MiB (0%)
  188. Title                                    : German-FORCED-PGS
  189. Language                                 : German
  190. Default                                  : No
  191. Forced                                   : No
  192. Menu
  193. 00:00:00.000                             : en:Chapter 01
  194. 00:07:49.166                             : en:Chapter 02
  195. 00:16:33.000                             : en:Chapter 03
  196. 00:25:54.791                             : en:Chapter 04
  197. 00:37:24.041                             : en:Chapter 05
  198. 00:43:20.625                             : en:Chapter 06
  199. 00:53:40.916                             : en:Chapter 07
  200. 00:59:08.875                             : en:Chapter 08
  201. 01:07:54.166                             : en:Chapter 09
  202. 01:20:18.958                             : en:Chapter 10
  203. 01:30:28.416                             : en:Chapter 11
  204. 01:41:11.250                             : en:Chapter 12
复制代码






                                       
                                       

                                       
                                       
                                       




回复

使用道具 举报

懒得打字嘛,点击右侧快捷回复 【右侧内容,后台自定义】
您需要登录后才可以回帖 登录 | 立即加入

本版积分规则

Copyright © 2024 Comsenz Inc. Powered by 蓝光电影网

本站内容由用户自主分享和转载自互联网,转载目的在于传递更多信息,并不代表本网赞同其观点和对其真实性负责。

如有侵权、违反国家法律政策行为,请联系我们,我们会第一时间及时清除和处理!

举报反馈邮箱:4k1080.com@gmail.com

快速回复 返回顶部 返回列表