找回密码

查看: 1032|回复: 0

[2160p] X战警:黑凤凰 Dark.Phoenix.2019.INTERNAL.REPACK.HDR.2160p.WEB.H265-DEFLATE 19.80GB

[复制链接]
蓝光币
1848
发表于 2019-9-4 10:16:50 | 显示全部楼层 |阅读模式


◎译  名 X战警:黑凤凰 / X-Men: Dark Phoenix / X-Men: Supernova / X战警7 / X战警前传4 / X战警:超新星 / X战警:黑凤凰传奇 / 变种特攻:黑凤凰(港)
◎片  名 Dark Phoenix
◎年  代 2019
◎产  地 美国
◎类  别 行动 / 科幻 / 冒险
◎语  言 英语
◎上映日期 2019-06-06(中国大陆) / 2019-06-07(美国)
◎IMDb评分  6.0/10 from 55231 users
◎IMDb链接  http://www.imdb.com/title/tt6565702
◎豆瓣评分 6.0/10 from 114886 users
◎豆瓣链接 https://movie.douban.com/subject/26667010/
◎片  长 114分钟
◎导  演 西蒙·金伯格 Simon Kinberg
◎编  剧 西蒙·金伯格 Simon Kinberg / 约翰·拜恩 John Byrne / 克里斯·克雷蒙 Chris Claremont / 戴夫·科克勒姆 Dave Cockrum / 杰克·科比 Jack Kirby / 斯坦·李 Stan Lee
◎主  演 苏菲·特纳 Sophie Turner
       詹姆斯·麦卡沃伊 James McAvoy
       迈克尔·法斯宾德 Michael Fassbender
       尼古拉斯·霍尔特 Nicholas Hoult
       泰伊·谢里丹 Tye Sheridan
       杰西卡·查斯坦 Jessica Chastain
       詹妮弗·劳伦斯 Jennifer Lawrence
       柯蒂·斯密特-麦菲 Kodi Smit-McPhee
       亚历山德拉·希普 Alexandra Shipp
       埃文·彼得斯 Evan Peters
       丹尼尔·库德摩尔 Daniel Cudmore
       奥托·艾森度 Ato Essandoh
       伊万·乔尼凯特 Evan Jonigkeit
       莎莫·芳塔娜 Summer Fontana
       斯科特· 谢泼德 Scott Shepherd
       拉马尔·约翰逊 Lamar Johnson
       泰勒·艾略特·伯克 Tyler Elliot Burke
       安德鲁·斯特林 Andrew Stehlin
       朱利安·拜利 Julian Bailey
       Maurizio Terrazzano
       Josh McLaglen
       格雷格·洛 Gregg Lowe
       塞巴斯蒂安·麦克莱恩 Sebastian MacLean
       沙维尔·索特洛 Xavier Sotelo
       Karen Ivany
       奥利维耶·拉玛舒 Olivier Lamarche
       西蒙·阿兰 Simon Alain
       Alexandre Bélanger

◎标  签 X战警 | 漫威 | 科幻 | 美国 | 超级豪杰 | 2019 | 漫画改编 | 行动
◎简  介  
  影片剧情围绕X战警中最受接待成员之一的琴·葛蕾展开,报告她逐步转化为黑凤凰的故事。在一次危及生命的太空救援行动中,琴被奥秘的宇宙气力击中,成为最强大的变种人。尔后琴·葛蕾不但要想法掌控日益增加、极不稳定的气力,更要与自己心里的恶魔抗争,她的失控让全部X战警大师庭四分五裂,也让全部星球堕入扑灭的威胁当中。《X战警:黑凤凰》是迄今为止氛围最严重、感情最丰富的一部《X战警》电影,是《X战警》系列20年来的集大成之作,大师很是熟悉和酷爱的变种人大师庭行将面临最为强大的仇敌——而她恰恰还是他们中的一员。
◎获奖情况  
  第5届豆瓣电影年度榜单(2018)
  最值得期待的外语电影(提名)
  1. Video
  2. ID                                       : 1
  3. Format                                   : HEVC
  4. Format/Info                              : High Efficiency Video Coding
  5. Format profile                           : Main [email protected]@High
  6. HDR format                               : SMPTE ST 2086, HDR10 compatible
  7. Codec ID                                 : V_MPEGH/ISO/HEVC
  8. Duration                                 : 1 h 53 min
  9. Bit rate                                 : 23.8 Mb/s
  10. Width                                    : 3 840 pixels
  11. Height                                   : 1 608 pixels
  12. Original height                          : 2 160 pixels
  13. Display aspect ratio                     : 16:9
  14. Frame rate mode                          : Constant
  15. Frame rate                               : 23.976 (24000/1001) FPS
  16. Color space                              : YUV
  17. Chroma subsampling                       : 4:2:0 (Type 2)
  18. Bit depth                                : 10 bits
  19. Bits/(Pixel*Frame)                       : 0.160
  20. Stream size                              : 18.9 GiB (95%)
  21. Default                                  : Yes
  22. Forced                                   : No
  23. Color range                              : Limited
  24. Color primaries                          : BT.2020
  25. Transfer characteristics                 : PQ
  26. Matrix coefficients                      : BT.2020 non-constant
  27. Mastering display color primaries        : Display P3
  28. Mastering display luminance              : min: 0.0050 cd/m2, max: 1000 cd/m2
  29. Audio
  30. ID                                       : 2
  31. Format                                   : E-AC-3
  32. Format/Info                              : Enhanced AC-3
  33. Commercial name                          : Dolby Digital Plus
  34. Codec ID                                 : A_EAC3
  35. Duration                                 : 1 h 53 min
  36. Bit rate mode                            : Constant
  37. Bit rate                                 : 640 kb/s
  38. Channel(s)                               : 6 channels
  39. Channel layout                           : L R C LFE Ls Rs
  40. Sampling rate                            : 48.0 kHz
  41. Frame rate                               : 31.250 FPS (1536 SPF)
  42. Compression mode                         : Lossy
  43. Stream size                              : 521 MiB (3%)
  44. Language                                 : English
  45. Service kind                             : Complete Main
  46. Default                                  : Yes
  47. Forced                                   : No
  48. Text #1
  49. ID                                       : 3
  50. Format                                   : UTF-8
  51. Codec ID                                 : S_TEXT/UTF8
  52. Codec ID/Info                            : UTF-8 Plain Text
  53. Title                                    : English (Forced)
  54. Language                                 : English
  55. Default                                  : Yes
  56. Forced                                   : Yes
  57. Text #2
  58. ID                                       : 4
  59. Format                                   : UTF-8
  60. Codec ID                                 : S_TEXT/UTF8
  61. Codec ID/Info                            : UTF-8 Plain Text
  62. Title                                    : English
  63. Language                                 : English
  64. Default                                  : No
  65. Forced                                   : No
  66. Text #3
  67. ID                                       : 5
  68. Format                                   : UTF-8
  69. Codec ID                                 : S_TEXT/UTF8
  70. Codec ID/Info                            : UTF-8 Plain Text
  71. Title                                    : English (SDH)
  72. Language                                 : English
  73. Default                                  : No
  74. Forced                                   : No
  75. Text #4
  76. ID                                       : 6
  77. Format                                   : UTF-8
  78. Codec ID                                 : S_TEXT/UTF8
  79. Codec ID/Info                            : UTF-8 Plain Text
  80. Title                                    : Spanish
  81. Language                                 : Spanish
  82. Default                                  : No
  83. Forced                                   : No
  84. Menu
  85. 00:00:01.000                             : en:Chapter 01
  86. 00:03:27.000                             : en:Chapter 02
  87. 00:07:33.000                             : en:Chapter 03
  88. 00:11:41.000                             : en:Chapter 04
  89. 00:15:43.000                             : en:Chapter 05
  90. 00:18:36.000                             : en:Chapter 06
  91. 00:25:23.000                             : en:Chapter 07
  92. 00:31:39.000                             : en:Chapter 08
  93. 00:34:18.000                             : en:Chapter 09
  94. 00:40:06.000                             : en:Chapter 10
  95. 00:44:35.000                             : en:Chapter 11
  96. 00:49:06.000                             : en:Chapter 12
  97. 00:55:37.000                             : en:Chapter 13
  98. 00:58:56.000                             : en:Chapter 14
  99. 01:02:55.000                             : en:Chapter 15
  100. 01:10:39.000                             : en:Chapter 16
  101. 01:13:41.000                             : en:Chapter 17
  102. 01:19:32.000                             : en:Chapter 18
  103. 01:22:34.000                             : en:Chapter 19
  104. 01:25:48.000                             : en:Chapter 20
  105. 01:30:37.000                             : en:Chapter 21
  106. 01:32:47.000                             : en:Chapter 22
  107. 01:37:58.000                             : en:Chapter 23
  108. 01:45:00.000                             : en:Chapter 24
复制代码






                                       
                                       

                                       
                                       
                                       




回复

使用道具 举报

懒得打字嘛,点击右侧快捷回复 【右侧内容,后台自定义】
您需要登录后才可以回帖 登录 | 立即加入

本版积分规则

Copyright © 2024 Comsenz Inc. Powered by 蓝光电影网

本站内容由用户自主分享和转载自互联网,转载目的在于传递更多信息,并不代表本网赞同其观点和对其真实性负责。

如有侵权、违反国家法律政策行为,请联系我们,我们会第一时间及时清除和处理!

举报反馈邮箱:4k1080.com@gmail.com

快速回复 返回顶部 返回列表