找回密码

查看: 1046|回复: 0

[2160p] 丧尸未逝 The.Dead.Dont.Die.2019.HDR.2160p.WEB.H265-DEFLATE 17.24GB

[复制链接]
蓝光币
1840
发表于 2019-9-4 02:55:08 | 显示全部楼层 |阅读模式


◎译  名 丧尸未逝 / Kill The Head / 丧尸死不完 / 死无可死(港) / 死者不死
◎片  名 The Dead Don't Die
◎年  代 2019
◎产  地 美国
◎类  别 笑剧 / 可骇
◎语  言 英语
◎上映日期 2019-05-14(戛纳电影节) / 2019-06-14(美国)
◎IMDb评分  5.9/10 from 11426 users
◎IMDb链接  http://www.imdb.com/title/tt8695030
◎豆瓣评分 6.3/10 from 1348 users
◎豆瓣链接 https://movie.douban.com/subject/30274839/
◎片  长 103分钟(戛纳电影节)
◎导  演 吉姆·贾木许 Jim Jarmusch
◎编  剧 吉姆·贾木许 Jim Jarmusch
◎主  演 科洛·塞维尼 Chlo? Sevigny
       亚当·德赖弗 Adam Driver
       蒂尔达·斯文顿 Tilda Swinton
       史蒂夫·布西密 Steve Buscemi
       奥斯汀·巴特勒 Austin Butler
       比尔·默瑞 Bill Murray
       卡赖伯·兰德里·琼斯 Caleb Landry Jones
       赛琳娜·戈麦斯 Selena Gomez
       卡罗尔·凯恩 Carol Kane
       汤姆·威兹 Tom Waits
       罗茜·佩雷兹 Rosie Perez
       丹尼·格洛弗 Danny Glover
       罗伯特·菲茨杰拉德·迪格斯 RZA
       伊基·波普 Iggy Pop
       罗莎尔·卡农 Rosal Colon
       萨拉·戴维 Sara Driver

◎标  签 丧尸 | 美国 | 吉姆·贾木许 | 笑剧 | 可骇 | 2019 | 丧尸片 | 蒂尔达·斯文顿
◎简  介  
  电影故事发生在寂静的小镇森特维尔,有些工作不太对劲。月亮又大又低地挂在天空中,白天的时候变得不成猜测,动物起头表示出不服常的行为。没人晓得缘由。消息报道是可怕的,科学家们对此感应担忧。但没有人预见到,人们很快就会迎来最希奇、最危险的结果:死人不会死——他们从宅兆里爬出来,蛮横地进犯活人,并大举享用——镇上的居民必须为保存而战。
◎获奖情况  
  第72届戛纳电影节(2019)
  主比赛单元 金棕榈奖(提名) 吉姆·贾木许
  1. Video
  2. ID                                       : 1
  3. Format                                   : HEVC
  4. Format/Info                              : High Efficiency Video Coding
  5. Format profile                           : Main [email protected]@High
  6. HDR format                               : SMPTE ST 2086, HDR10 compatible
  7. Codec ID                                 : V_MPEGH/ISO/HEVC
  8. Duration                                 : 1 h 44 min
  9. Bit rate                                 : 22.3 Mb/s
  10. Width                                    : 3 840 pixels
  11. Height                                   : 2 160 pixels
  12. Display aspect ratio                     : 16:9
  13. Frame rate mode                          : Constant
  14. Frame rate                               : 23.976 (24000/1001) FPS
  15. Color space                              : YUV
  16. Chroma subsampling                       : 4:2:0 (Type 2)
  17. Bit depth                                : 10 bits
  18. Bits/(Pixel*Frame)                       : 0.112
  19. Stream size                              : 16.3 GiB (95%)
  20. Default                                  : Yes
  21. Forced                                   : No
  22. Color range                              : Limited
  23. Color primaries                          : BT.2020
  24. Transfer characteristics                 : PQ
  25. Matrix coefficients                      : BT.2020 non-constant
  26. Mastering display color primaries        : BT.2020
  27. Mastering display luminance              : min: 0.0050 cd/m2, max: 1000 cd/m2
  28. Maximum Content Light Level              : 1258 cd/m2
  29. Maximum Frame-Average Light Level        : 143 cd/m2
  30. Audio
  31. ID                                       : 2
  32. Format                                   : E-AC-3
  33. Format/Info                              : Enhanced AC-3
  34. Commercial name                          : Dolby Digital Plus
  35. Codec ID                                 : A_EAC3
  36. Duration                                 : 1 h 44 min
  37. Bit rate mode                            : Constant
  38. Bit rate                                 : 640 kb/s
  39. Channel(s)                               : 6 channels
  40. Channel layout                           : L R C LFE Ls Rs
  41. Sampling rate                            : 48.0 kHz
  42. Frame rate                               : 31.250 FPS (1536 SPF)
  43. Compression mode                         : Lossy
  44. Stream size                              : 478 MiB (3%)
  45. Language                                 : English
  46. Service kind                             : Complete Main
  47. Default                                  : Yes
  48. Forced                                   : No
  49. Text #1
  50. ID                                       : 3
  51. Format                                   : UTF-8
  52. Codec ID                                 : S_TEXT/UTF8
  53. Codec ID/Info                            : UTF-8 Plain Text
  54. Title                                    : English
  55. Language                                 : English
  56. Default                                  : No
  57. Forced                                   : No
  58. Text #2
  59. ID                                       : 4
  60. Format                                   : UTF-8
  61. Codec ID                                 : S_TEXT/UTF8
  62. Codec ID/Info                            : UTF-8 Plain Text
  63. Title                                    : English (SDH)
  64. Language                                 : English
  65. Default                                  : No
  66. Forced                                   : No
  67. Text #3
  68. ID                                       : 5
  69. Format                                   : UTF-8
  70. Codec ID                                 : S_TEXT/UTF8
  71. Codec ID/Info                            : UTF-8 Plain Text
  72. Title                                    : Spanish
  73. Language                                 : Spanish
  74. Default                                  : No
  75. Forced                                   : No
复制代码





                                       
                                       

                                       
                                       
                                       




回复

使用道具 举报

懒得打字嘛,点击右侧快捷回复 【右侧内容,后台自定义】
您需要登录后才可以回帖 登录 | 立即加入

本版积分规则

Copyright © 2024 Comsenz Inc. Powered by 蓝光电影网

本站内容由用户自主分享和转载自互联网,转载目的在于传递更多信息,并不代表本网赞同其观点和对其真实性负责。

如有侵权、违反国家法律政策行为,请联系我们,我们会第一时间及时清除和处理!

举报反馈邮箱:4k1080.com@gmail.com

快速回复 返回顶部 返回列表