找回密码

查看: 1126|回复: 0

[UHD.HEVC] 致命勘探/异星探索 Prospect.2018.2160p.BluRay.REMUX.HEVC.DTS-HD.MA.5.1-FGT 40.89GB

[复制链接]
蓝光币
1840
发表于 2019-7-29 01:26:04 | 显示全部楼层 |阅读模式


◎译  名 致命勘察 / 异星摸索(台)
◎片  名 Prospect
◎年  代 2018
◎产  地 美国
◎类  别 剧情 / 科幻 / 惊悚
◎语  言 英语
◎上映日期 2018-03-10(西南偏南电影节) / 2018-11-02(美国)
◎IMDb评分  6.1/10 from 7881 users
◎IMDb链接  http://www.imdb.com/title/tt7946422
◎豆瓣评分 4.9/10 from 553 users
◎豆瓣链接 https://movie.douban.com/subject/30149773/
◎片  长 98分钟
◎导  演 Christopher Caldwell / Zeek Ear
◎编  剧 Chris Caldwell / Zeek Earl
◎主  演 佩德罗·帕斯卡 Pedro Pascal
      杰伊·杜普拉斯 Jay Duplass
      Sophie Thatcher

◎标  签 科幻 | 美国 | 2018 | 惊悚 | 剧情 | 美国电影 | 烂片 | 电影
◎简  介  
  一个少女和她父亲来到外星球勘测奥秘矿石,但那座布满危险的森林里还有其他人,很快勘察酿成了一场绝命流亡。
  1. Video
  2. ID                                       : 1
  3. Format                                   : HEVC
  4. Format/Info                              : High Efficiency Video Coding
  5. Format profile                           : Main [email protected]@High
  6. HDR format                               : SMPTE ST 2086, HDR10 compatible
  7. Codec ID                                 : V_MPEGH/ISO/HEVC
  8. Duration                                 : 1 h 39 min
  9. Bit rate                                 : 53.2 Mb/s
  10. Width                                    : 3 840 pixels
  11. Height                                   : 2 160 pixels
  12. Display aspect ratio                     : 16:9
  13. Frame rate mode                          : Constant
  14. Frame rate                               : 23.976 (24000/1001) FPS
  15. Color space                              : YUV
  16. Chroma subsampling                       : 4:2:0 (Type 2)
  17. Bit depth                                : 10 bits
  18. Bits/(Pixel*Frame)                       : 0.268
  19. Stream size                              : 37.1 GiB (91%)
  20. Title                                    : Prospect.2018.2160p.BluRay.REMUX.HEVC.DTS-HD.MA.5.1-FGT
  21. Language                                 : English
  22. Default                                  : No
  23. Forced                                   : No
  24. Color range                              : Limited
  25. Color primaries                          : BT.2020
  26. Transfer characteristics                 : PQ
  27. Matrix coefficients                      : BT.2020 non-constant
  28. Mastering display color primaries        : Display P3
  29. Mastering display luminance              : min: 0.0050 cd/m2, max: 1000 cd/m2
  30. Maximum Content Light Level              : 1000 cd/m2
  31. Maximum Frame-Average Light Level        : 516 cd/m2
  32. Audio #1
  33. ID                                       : 2
  34. Format                                   : DTS XLL
  35. Format/Info                              : Digital Theater Systems
  36. Commercial name                          : DTS-HD Master Audio
  37. Codec ID                                 : A_DTS
  38. Duration                                 : 1 h 39 min
  39. Bit rate mode                            : Variable
  40. Bit rate                                 : 1 800 kb/s
  41. Channel(s)                               : 6 channels
  42. Channel layout                           : C L R Ls Rs LFE
  43. Sampling rate                            : 48.0 kHz
  44. Frame rate                               : 93.750 FPS (512 SPF)
  45. Bit depth                                : 16 bits
  46. Compression mode                         : Lossless
  47. Stream size                              : 1.25 GiB (3%)
  48. Title                                    : Prospect.2018.2160p.BluRay.REMUX.HEVC.DTS-HD.MA.5.1-FGT
  49. Language                                 : English
  50. Default                                  : Yes
  51. Forced                                   : No
  52. Audio #2
  53. ID                                       : 3
  54. Format                                   : DTS XLL
  55. Format/Info                              : Digital Theater Systems
  56. Commercial name                          : DTS-HD Master Audio
  57. Codec ID                                 : A_DTS
  58. Duration                                 : 1 h 39 min
  59. Bit rate mode                            : Variable
  60. Bit rate                                 : 3 620 kb/s
  61. Channel(s)                               : 6 channels
  62. Channel layout                           : C L R Ls Rs LFE
  63. Sampling rate                            : 48.0 kHz
  64. Frame rate                               : 93.750 FPS (512 SPF)
  65. Bit depth                                : 24 bits
  66. Compression mode                         : Lossless
  67. Stream size                              : 2.52 GiB (6%)
  68. Title                                    : Prospect.2018.2160p.BluRay.REMUX.HEVC.DTS-HD.MA.5.1-FGT
  69. Language                                 : German
  70. Default                                  : No
  71. Forced                                   : No
  72. Text #1
  73. ID                                       : 4
  74. Format                                   : UTF-8
  75. Codec ID                                 : S_TEXT/UTF8
  76. Codec ID/Info                            : UTF-8 Plain Text
  77. Duration                                 : 1 h 38 min
  78. Bit rate                                 : 30 b/s
  79. Count of elements                        : 974
  80. Stream size                              : 22.3 KiB (0%)
  81. Title                                    : English-SRT
  82. Language                                 : English
  83. Default                                  : Yes
  84. Forced                                   : No
  85. Text #2
  86. ID                                       : 5
  87. Format                                   : PGS
  88. Muxing mode                              : zlib
  89. Codec ID                                 : S_HDMV/PGS
  90. Codec ID/Info                            : Picture based subtitle format used on BDs/HD-DVDs
  91. Duration                                 : 1 h 28 min
  92. Bit rate                                 : 27.3 kb/s
  93. Count of elements                        : 1474
  94. Stream size                              : 17.2 MiB (0%)
  95. Title                                    : German-FORCED-PGS
  96. Language                                 : German
  97. Default                                  : No
  98. Forced                                   : No
  99. Text #3
  100. ID                                       : 6
  101. Format                                   : PGS
  102. Muxing mode                              : zlib
  103. Codec ID                                 : S_HDMV/PGS
  104. Codec ID/Info                            : Picture based subtitle format used on BDs/HD-DVDs
  105. Duration                                 : 1 s 22 ms
  106. Bit rate                                 : 4 673 b/s
  107. Count of elements                        : 2
  108. Stream size                              : 597 Bytes (0%)
  109. Title                                    : German-PGS
  110. Language                                 : German
  111. Default                                  : No
  112. Forced                                   : No
  113. Menu
  114. 00:00:00.000                             : en:Chapter 01
  115. 00:07:43.629                             : en:Chapter 02
  116. 00:13:02.531                             : en:Chapter 03
  117. 00:20:54.795                             : en:Chapter 04
  118. 00:27:59.761                             : en:Chapter 05
  119. 00:35:11.275                             : en:Chapter 06
  120. 00:46:54.228                             : en:Chapter 07
  121. 00:54:41.736                             : en:Chapter 08
  122. 01:02:19.402                             : en:Chapter 09
  123. 01:12:29.428                             : en:Chapter 10
  124. 01:20:09.221                             : en:Chapter 11
  125. 01:28:26.968                             : en:Chapter 12
复制代码






                                       
                                       

                                       
                                       
                                       




回复

使用道具 举报

懒得打字嘛,点击右侧快捷回复 【右侧内容,后台自定义】
您需要登录后才可以回帖 登录 | 立即加入

本版积分规则

Copyright © 2024 Comsenz Inc. Powered by 蓝光电影网

本站内容由用户自主分享和转载自互联网,转载目的在于传递更多信息,并不代表本网赞同其观点和对其真实性负责。

如有侵权、违反国家法律政策行为,请联系我们,我们会第一时间及时清除和处理!

举报反馈邮箱:4k1080.com@gmail.com

快速回复 返回顶部 返回列表