找回密码

查看: 1178|回复: 0

[UHD.HEVC] 赛车总动员/反斗车王 Cars.2006.2160p.BluRay.REMUX.HEVC.TrueHD.7.1.Atmos-FGT 41.90GB

[复制链接]
蓝光币
1856
发表于 2019-9-9 18:50:26 | 显示全部楼层 |阅读模式


◎译  名 赛车总带动 / 反斗车王(港) / 小汽车的故事 / 汽车总带动 / 飞车正传
◎片  名 Cars
◎年  代 2006
◎产  地 美国
◎类  别 笑剧 / 动画 / 冒险
◎语  言 英语 / 意大利语 / 日语 / 依地语
◎上映日期 2006-06-09(美国) / 2006-08-22(中国大陆)
◎IMDb评分  7.1/10 from 335631 users
◎IMDb链接  http://www.imdb.com/title/tt0317219
◎豆瓣评分 7.9/10 from 120886 users
◎豆瓣链接 https://movie.douban.com/subject/1428878/
◎片  长 117分钟
◎导  演 约翰·拉塞特 John Lasseter / 乔·兰福特 Joe Ranft
◎编  剧 约翰·拉塞特 John Lasseter / 乔·兰福特 Joe Ranft / 乔根·克卢宾 Jorgen Klubien / 丹·福格尔曼 Dan Fogelman / 基尔·默里 Kiel Murray / 菲尔·洛林 Phil Lorin / 史蒂夫·波赛尔 Steve Purcell
◎主  演 欧文·威尔逊 Owen Wilson
       保罗·纽曼 Paul Newman
       邦尼·亨特 Bonnie Hunt
       王牌接线员拉里 Larry The Cable Guy
       切奇·马林 Cheech Marin
       托尼·夏尔赫布 Tony Shalhoub
       盖多·克隆尼 Guido Quaroni
       詹妮弗·路易斯 Jenifer Lewis
       保罗·杜利 Paul Dooley
       迈克尔·沃利斯 Michael Wallis
       乔治·卡林 George Carlin
       凯瑟琳·海蒙德 Katherine Helmond
       约翰·拉岑贝格 John Ratzenberger
       乔·兰福特 Joe Ranft
       迈克尔·基顿 Michael Keaton
       伊迪·迈克莱尔 Edie McClurg
       安德鲁·斯坦顿 Andrew Stanton
       小戴尔·恩哈特 Dale Earnhardt Jr.
       迈克尔·舒马赫 Michael Schumacher
       杰·雷诺 Jay Leno
       乔纳斯·里维拉 Jonas Rivera
       卢·罗曼诺 Lou Romano
       艾丽莎·奈特 Elissa Knight
       林赛·柯林斯 Lindsey Collins

◎标  签 动画 | 美国 | Pixar | 迪斯尼 | 笑剧 | 动画片 | 2006 | 美国电影
◎简  介  
  汽车天下中,一年一度的活塞杯再次拉开序幕。红色跑车“闪电”麦坤和“冠军”、“路霸”是冠军最有力的合作者。作为新人,麦坤具有极高的天赋,同时也是一个才高气傲的家伙。经过严重剧烈的匹敌,这三辆车同时冲过尽头线。由于没法判定终极优越者,组委会决议一个月后在加州洛杉矶召开一次只要这三辆车加入的殊死战,只要最初的胜者才能捧得活塞杯。
  信心满满麦坤和同伴拖车麦大叔早早出发。可是长时候的疲惫驾驶,令麦大叔失慎将麦坤丢在半路。麦坤东闯西撞,无意间来到了被众车忘记的油车水镇。因躲避警长的追捕,麦坤损坏了小镇的马路。在法官哈迪逊韩医生和律师保时捷莎莉的判决下,他被迫留在这里修路。短短几天相处,麦坤和小镇的居民渐渐和谐起来,同时他也爱上了美丽的莎莉。只不外,路终有修完的时辰,未完的角逐仍在期待着他……
◎获奖情况  
  第79届奥斯卡金像奖(2007)
  最好动画长片(提名) 约翰·拉塞特
  最好原创歌曲(提名) 兰迪·纽曼
  第64届金球奖(2007)
  电影类 最好动画长片
  第34届动画安妮奖(2007)
  最好动画长片
  最好导演(提名) 约翰·拉塞特
  最好编剧(提名) 丹·福格尔曼
  最好配乐 兰迪·纽曼
  最好艺术指导(提名) William Cone
  最好动画脚色(提名) 卡洛斯·巴埃纳 / Bobby Podesta
  最好动画结果(提名) Keith Daniel Klohn / Erdem Taylan
  1. Video
  2. ID                                       : 1
  3. Format                                   : HEVC
  4. Format/Info                              : High Efficiency Video Coding
  5. Format profile                           : Main [email protected]@High
  6. HDR format                               : SMPTE ST 2086, HDR10 compatible
  7. Codec ID                                 : V_MPEGH/ISO/HEVC
  8. Duration                                 : 1 h 56 min
  9. Bit rate                                 : 40.2 Mb/s
  10. Width                                    : 3 840 pixels
  11. Height                                   : 2 160 pixels
  12. Display aspect ratio                     : 16:9
  13. Frame rate mode                          : Constant
  14. Frame rate                               : 23.976 (24000/1001) FPS
  15. Color space                              : YUV
  16. Chroma subsampling                       : 4:2:0 (Type 2)
  17. Bit depth                                : 10 bits
  18. Bits/(Pixel*Frame)                       : 0.202
  19. Stream size                              : 32.8 GiB (78%)
  20. Title                                    : Cars.2006.2160p.BluRay.REMUX.HEVC.TrueHD.7.1.Atmos-FGT
  21. Writing library                          : ATEME Titan File 3.9.0 (4.9.0.0)        
  22. Language                                 : English
  23. Default                                  : No
  24. Forced                                   : No
  25. Color range                              : Limited
  26. Color primaries                          : BT.2020
  27. Transfer characteristics                 : PQ
  28. Matrix coefficients                      : BT.2020 non-constant
  29. Mastering display color primaries        : Display P3
  30. Mastering display luminance              : min: 0.0000 cd/m2, max: 1000 cd/m2
  31. Audio #1
  32. ID                                       : 2
  33. Format                                   : MLP FBA 16-ch
  34. Format/Info                              : Meridian Lossless Packing FBA with 16-channel presentation
  35. Commercial name                          : Dolby TrueHD with Dolby Atmos
  36. Codec ID                                 : A_TRUEHD
  37. Duration                                 : 1 h 56 min
  38. Bit rate mode                            : Variable
  39. Bit rate                                 : 7 098 kb/s
  40. Maximum bit rate                         : 9 315 kb/s
  41. Channel(s)                               : 8 channels
  42. Channel layout                           : L R C LFE Ls Rs Lb Rb
  43. Sampling rate                            : 48.0 kHz
  44. Frame rate                               : 1 200.000 FPS (40 SPF)
  45. Compression mode                         : Lossless
  46. Stream size                              : 5.79 GiB (14%)
  47. Title                                    : Cars.2006.2160p.BluRay.REMUX.HEVC.TrueHD.7.1.Atmos-FGT
  48. Language                                 : English
  49. Default                                  : Yes
  50. Forced                                   : No
  51. Number of dynamic objects                : 13
  52. Bed channel count                        : 1 channel
  53. Bed channel configuration                : LFE
  54. Audio #2
  55. ID                                       : 3
  56. Format                                   : AC-3
  57. Format/Info                              : Audio Coding 3
  58. Commercial name                          : Dolby Digital
  59. Codec ID                                 : A_AC3
  60. Duration                                 : 1 h 56 min
  61. Bit rate mode                            : Constant
  62. Bit rate                                 : 640 kb/s
  63. Channel(s)                               : 6 channels
  64. Channel layout                           : L R C LFE Ls Rs
  65. Sampling rate                            : 48.0 kHz
  66. Frame rate                               : 31.250 FPS (1536 SPF)
  67. Bit depth                                : 16 bits
  68. Compression mode                         : Lossy
  69. Stream size                              : 535 MiB (1%)
  70. Title                                    : Cars.2006.2160p.BluRay.REMUX.HEVC.TrueHD.7.1.Atmos-FGT
  71. Language                                 : English
  72. Service kind                             : Complete Main
  73. Default                                  : No
  74. Forced                                   : No
  75. Audio #3
  76. ID                                       : 4
  77. Format                                   : DTS ES XBR
  78. Format/Info                              : Digital Theater Systems
  79. Commercial name                          : DTS-HD High Resolution Audio
  80. Codec ID                                 : A_DTS
  81. Duration                                 : 1 h 56 min
  82. Bit rate mode                            : Constant
  83. Bit rate                                 : 2 046 kb/s
  84. Channel(s)                               : 6 channels
  85. Channel(s)_Original                      : 7 channels
  86. Channel layout                           : C L R Ls Rs LFE Cb
  87. Sampling rate                            : 48.0 kHz
  88. Frame rate                               : 93.750 FPS (512 SPF)
  89. Bit depth                                : 24 bits
  90. Compression mode                         : Lossy
  91. Stream size                              : 1.67 GiB (4%)
  92. Title                                    : Cars.2006.2160p.BluRay.REMUX.HEVC.TrueHD.7.1.Atmos-FGT
  93. Language                                 : English
  94. Default                                  : No
  95. Forced                                   : No
  96. Audio #4
  97. ID                                       : 5
  98. Format                                   : AC-3
  99. Format/Info                              : Audio Coding 3
  100. Commercial name                          : Dolby Digital
  101. Codec ID                                 : A_AC3
  102. Duration                                 : 1 h 56 min
  103. Bit rate mode                            : Constant
  104. Bit rate                                 : 320 kb/s
  105. Channel(s)                               : 2 channels
  106. Channel layout                           : L R
  107. Sampling rate                            : 48.0 kHz
  108. Frame rate                               : 31.250 FPS (1536 SPF)
  109. Bit depth                                : 16 bits
  110. Compression mode                         : Lossy
  111. Stream size                              : 267 MiB (1%)
  112. Title                                    : Cars.2006.2160p.BluRay.REMUX.HEVC.TrueHD.7.1.Atmos-FGT
  113. Language                                 : English
  114. Service kind                             : Complete Main
  115. Default                                  : No
  116. Forced                                   : No
  117. Audio #5
  118. ID                                       : 6
  119. Format                                   : AC-3
  120. Format/Info                              : Audio Coding 3
  121. Commercial name                          : Dolby Digital
  122. Codec ID                                 : A_AC3
  123. Duration                                 : 1 h 56 min
  124. Bit rate mode                            : Constant
  125. Bit rate                                 : 320 kb/s
  126. Channel(s)                               : 2 channels
  127. Channel layout                           : L R
  128. Sampling rate                            : 48.0 kHz
  129. Frame rate                               : 31.250 FPS (1536 SPF)
  130. Bit depth                                : 16 bits
  131. Compression mode                         : Lossy
  132. Stream size                              : 267 MiB (1%)
  133. Title                                    : Cars.2006.2160p.BluRay.REMUX.HEVC.TrueHD.7.1.Atmos-FGT
  134. Language                                 : English
  135. Service kind                             : Complete Main
  136. Default                                  : No
  137. Forced                                   : No
  138. Audio #6
  139. ID                                       : 7
  140. Format                                   : AC-3
  141. Format/Info                              : Audio Coding 3
  142. Commercial name                          : Dolby Digital
  143. Codec ID                                 : A_AC3
  144. Duration                                 : 1 h 56 min
  145. Bit rate mode                            : Constant
  146. Bit rate                                 : 640 kb/s
  147. Channel(s)                               : 6 channels
  148. Channel layout                           : L R C LFE Ls Rs
  149. Sampling rate                            : 48.0 kHz
  150. Frame rate                               : 31.250 FPS (1536 SPF)
  151. Bit depth                                : 16 bits
  152. Compression mode                         : Lossy
  153. Stream size                              : 535 MiB (1%)
  154. Title                                    : Cars.2006.2160p.BluRay.REMUX.HEVC.TrueHD.7.1.Atmos-FGT
  155. Language                                 : Spanish
  156. Service kind                             : Complete Main
  157. Default                                  : No
  158. Forced                                   : No
  159. Text #1
  160. ID                                       : 8
  161. Format                                   : UTF-8
  162. Codec ID                                 : S_TEXT/UTF8
  163. Codec ID/Info                            : UTF-8 Plain Text
  164. Duration                                 : 1 h 55 min
  165. Bit rate                                 : 67 b/s
  166. Count of elements                        : 1543
  167. Stream size                              : 57.3 KiB (0%)
  168. Title                                    : English-SRT
  169. Language                                 : English
  170. Default                                  : Yes
  171. Forced                                   : No
  172. Text #2
  173. ID                                       : 9
  174. Format                                   : PGS
  175. Muxing mode                              : zlib
  176. Codec ID                                 : S_HDMV/PGS
  177. Codec ID/Info                            : Picture based subtitle format used on BDs/HD-DVDs
  178. Duration                                 : 1 h 55 min
  179. Bit rate                                 : 48.3 kb/s
  180. Count of elements                        : 3574
  181. Stream size                              : 39.8 MiB (0%)
  182. Title                                    : English-PGS
  183. Language                                 : English
  184. Default                                  : No
  185. Forced                                   : No
  186. Text #3
  187. ID                                       : 10
  188. Format                                   : PGS
  189. Muxing mode                              : zlib
  190. Codec ID                                 : S_HDMV/PGS
  191. Codec ID/Info                            : Picture based subtitle format used on BDs/HD-DVDs
  192. Duration                                 : 1 h 55 min
  193. Bit rate                                 : 35.3 kb/s
  194. Count of elements                        : 2798
  195. Stream size                              : 29.0 MiB (0%)
  196. Title                                    : Spanish-PGS
  197. Language                                 : Spanish
  198. Default                                  : No
  199. Forced                                   : No
  200. Menu
  201. 00:00:00.000                             : en:Chapter 01
  202. 00:09:38.244                             : en:Chapter 02
  203. 00:13:48.828                             : en:Chapter 03
  204. 00:16:19.853                             : en:Chapter 04
  205. 00:19:53.483                             : en:Chapter 05
  206. 00:24:33.597                             : en:Chapter 06
  207. 00:27:27.187                             : en:Chapter 07
  208. 00:28:12.774                             : en:Chapter 08
  209. 00:29:42.155                             : en:Chapter 09
  210. 00:33:58.077                             : en:Chapter 10
  211. 00:35:53.901                             : en:Chapter 11
  212. 00:41:51.175                             : en:Chapter 12
  213. 00:45:56.587                             : en:Chapter 13
  214. 00:48:41.043                             : en:Chapter 14
  215. 00:50:39.494                             : en:Chapter 15
  216. 00:54:40.819                             : en:Chapter 16
  217. 00:57:48.214                             : en:Chapter 17
  218. 01:01:29.435                             : en:Chapter 18
  219. 01:02:59.108                             : en:Chapter 19
  220. 01:05:43.272                             : en:Chapter 20
  221. 01:07:43.309                             : en:Chapter 21
  222. 01:09:49.810                             : en:Chapter 22
  223. 01:11:27.741                             : en:Chapter 23
  224. 01:15:01.747                             : en:Chapter 24
  225. 01:15:58.303                             : en:Chapter 25
  226. 01:20:14.643                             : en:Chapter 26
  227. 01:22:22.187                             : en:Chapter 27
  228. 01:24:59.219                             : en:Chapter 28
  229. 01:27:32.247                             : en:Chapter 29
  230. 01:32:37.510                             : en:Chapter 30
  231. 01:46:18.121                             : en:Chapter 31
  232. 01:48:31.963                             : en:Chapter 32
复制代码






                                       
                                       

                                       
                                       
                                       




回复

使用道具 举报

懒得打字嘛,点击右侧快捷回复 【右侧内容,后台自定义】
您需要登录后才可以回帖 登录 | 立即加入

本版积分规则

Copyright © 2024 Comsenz Inc. Powered by 蓝光电影网

本站内容由用户自主分享和转载自互联网,转载目的在于传递更多信息,并不代表本网赞同其观点和对其真实性负责。

如有侵权、违反国家法律政策行为,请联系我们,我们会第一时间及时清除和处理!

举报反馈邮箱:4k1080.com@gmail.com

快速回复 返回顶部 返回列表