找回密码

查看: 1042|回复: 0

[2160p] 疾速备战 John.Wick.Chapter.3.Parabellum.2019.2160p.BluRay.x265.10bit.SDR.DTS-HD.MA.TrueHD.7.1.Atmos-SWTYBLZ 43.12GB

[复制链接]
蓝光币
1840
发表于 2019-9-3 14:23:15 | 显示全部楼层 |阅读模式


◎译  名 快速备战 / Alpha Cop / John Wick 3 / John Wick 3: Parabellum / John Wick: Chapter 3 / 保卫使命3:周全开战(台) / 杀神John Wick 3(港) / 极速追杀:第三章 / 快速追杀3 / 快速流亡 / 约翰·威克3 / 还我狗命3(豆友译名)
◎片  名 John Wick: Chapter 3 - Parabellum
◎年  代 2019
◎产  地 美国
◎类  别 行动 / 惊悚 / 犯罪
◎语  言 英语 / 俄语 / 日语 / 意大利语 / 阿拉伯语
◎上映日期 2019-05-17(美国)
◎IMDb评分  7.8/10 from 130864 users
◎IMDb链接  http://www.imdb.com/title/tt6146586
◎豆瓣评分 8.0/10 from 49459 users
◎豆瓣链接 https://movie.douban.com/subject/26909790/
◎片  长 131分钟
◎导  演 查德·斯塔赫斯基 Chad Stahelski
◎编  剧 德里克·科尔斯塔 Derek Kolstad / 谢伊·哈滕  Shay Hatten / 克里斯·柯林斯 Chris Collins / 马克·艾布拉姆斯 Marc Abrams
◎主  演 基努·里维斯 Keanu Reeves
       哈莉·贝瑞 Halle Berry
       劳伦斯·菲什伯恩 Laurence Fishburne
       安杰丽卡·休斯顿 Anjelica Huston
       伊恩·麦柯肖恩 Ian McShane
       马克·达卡斯考斯 Mark Dacascos
       艾莎·凯特·狄龙 Asia Kate Dillon
       兰斯·莱迪克 Lance Reddick
       萨伊德·塔格马奥 Sa?d Taghmaoui
       杰罗姆·弗林 Jerome Flynn
       杰森·曼兹沃克斯 Jason Mantzoukas
       托拜厄斯·西格尔 Tobias Segal
       博班·马里亚诺维奇 Boban Marjanovic
       罗宾·泰勒 Robin Lord Taylor
       罗比·德拉费勒 Robbie DeRaffele
       费斯·洛根 Faith Logan
       雅彦·鲁伊安 Yayan Ruhian
       兰德尔·杜克·金 Randall Duk Kim
       袁之正 Roger Yuan
       陈虎 Tiger Hu Chen
       安东尼·帕迪利亚 Anthony Padilla
       斯特凡尼娅·马卡洛娃 Stefaniya Makarova
       西尔维奥·西马克 Silvio Simac
       马米·科西科 Marmee Cosico
       罗曼·米蒂齐扬 Roman Mitichyan
       塞塞普·阿里夫·拉赫曼 Cecep Arif Rahman
       安妮·比萨比亚 Annie Pisapia
       约翰·盖蒂尔 John Gettier

◎标  签 行动 | 暴力美学 | 暴力 | 美国 | 犯罪 | 肾上腺素 | 2019 | 杀手
◎简  介  
  约翰·威克履历了前两次的追杀、特攻以后,由于执意破坏酒店规矩,因此遭到悬赏通缉,全球杀手闻风而至、一路追杀。此次他又将若何杀出重围,终结这场流亡之旅。
  1. Video
  2. ID                                       : 1
  3. Format                                   : HEVC
  4. Format/Info                              : High Efficiency Video Coding
  5. Format profile                           : Main [email protected]@High
  6. Codec ID                                 : V_MPEGH/ISO/HEVC
  7. Duration                                 : 2 h 10 min
  8. Bit rate                                 : 37.8 Mb/s
  9. Width                                    : 3 840 pixels
  10. Height                                   : 1 600 pixels
  11. Display aspect ratio                     : 2.40:1
  12. Frame rate mode                          : Constant
  13. Frame rate                               : 23.976 (24000/1001) FPS
  14. Color space                              : YUV
  15. Chroma subsampling                       : 4:2:0
  16. Bit depth                                : 10 bits
  17. Bits/(Pixel*Frame)                       : 0.257
  18. Stream size                              : 34.5 GiB (80%)
  19. Title                                    : John.Wick.Chapter.3.Parabellum.2019.2160p.BluRay.x265.10bit.SDR.DTS-HD.MA.TrueHD.7.1.Atmos-SWTYBLZ
  20. Writing library                          : x265 3.0ed72af837053:[Windows][GCC 8.2.0][64 bit] 10bit
  21. Encoding settings                        : cpuid=1111039 / frame-threads=16 / numa-pools=44,44 / wpp / no-pmode / no-pme / no-psnr / no-ssim / log-level=2 / input-csp=1 / input-res=3840x1600 / interlace=0 / total-frames=188123 / level-idc=51 / high-tier=1 / uhd-bd=0 / ref=3 / no-allow-non-conformance / repeat-headers / annexb / aud / hrd / info / hash=0 / no-temporal-layers / no-open-gop / min-keyint=1 / keyint=24 / gop-lookahead=0 / bframes=4 / b-adapt=2 / b-pyramid / bframe-bias=0 / rc-lookahead=25 / lookahead-slices=4 / scenecut=40 / radl=0 / no-splice / no-intra-refresh / ctu=64 / min-cu-size=8 / no-rect / no-amp / max-tu-size=32 / tu-inter-depth=1 / tu-intra-depth=1 / limit-tu=0 / rdoq-level=0 / dynamic-rd=0.00 / no-ssim-rd / signhide / no-tskip / nr-intra=0 / nr-inter=0 / no-constrained-intra / strong-intra-smoothing / max-merge=2 / limit-refs=3 / no-limit-modes / me=1 / subme=2 / merange=57 / temporal-mvp / weightp / no-weightb / no-analyze-src-pics / deblock=0:0 / no-sao / no-sao-non-deblock / rd=3 / no-early-skip / rskip / no-fast-intra / no-tskip-fast / no-cu-lossless / no-b-intra / no-splitrd-skip / rdpenalty=0 / psy-rd=2.00 / psy-rdoq=0.00 / no-rd-refine / no-lossless / cbqpoffs=0 / crqpoffs=0 / rc=crf / crf=16.0 / qcomp=0.60 / qpstep=4 / stats-write=0 / stats-read=0 / vbv-maxrate=160000 / vbv-bufsize=160000 / vbv-init=0.9 / crf-max=0.0 / crf-min=0.0 / ipratio=1.40 / pbratio=1.30 / aq-mode=1 / aq-strength=1.00 / cutree / zone-count=0 / no-strict-cbr / qg-size=32 / no-rc-grain / qpmax=69 / qpmin=0 / no-const-vbv / sar=1 / overscan=0 / videoformat=5 / range=0 / colorprim=2 / transfer=2 / colormatrix=2 / chromaloc=0 / display-window=0 / max-cll=0,0 / min-luma=0 / max-luma=1023 / log2-max-poc-lsb=8 / vui-timing-info / vui-hrd-info / slices=1 / opt-qp-pps / opt-ref-list-length-pps / no-multi-pass-opt-rps / scenecut-bias=0.05 / no-opt-cu-delta-qp / no-aq-motion / no-hdr / no-hdr-opt / no-dhdr10-opt / no-idr-recovery-sei / analysis-reuse-level=5 / scale-factor=0 / refine-intra=0 / refine-inter=0 / refine-mv=0 / refine-ctu-distortion=0 / no-limit-sao / ctu-info=0 / no-lowpass-dct / refine-analysis-type=0 / copy-pic=1 / max-ausize-factor=1.0 / no-dynamic-refine / no-single-sei / no-hevc-aq / qp-adaptation-range=1.00
  22. Default                                  : Yes
  23. Forced                                   : No
  24. Audio #1
  25. ID                                       : 2
  26. Format                                   : MLP FBA 16-ch
  27. Format/Info                              : Meridian Lossless Packing FBA with 16-channel presentation
  28. Commercial name                          : Dolby TrueHD with Dolby Atmos
  29. Codec ID                                 : A_TRUEHD
  30. Duration                                 : 2 h 10 min
  31. Bit rate mode                            : Variable
  32. Bit rate                                 : 4 012 kb/s
  33. Maximum bit rate                         : 6 327 kb/s
  34. Channel(s)                               : 8 channels
  35. Channel layout                           : L R C LFE Ls Rs Lb Rb
  36. Sampling rate                            : 48.0 kHz
  37. Frame rate                               : 1 200.000 FPS (40 SPF)
  38. Compression mode                         : Lossless
  39. Stream size                              : 3.66 GiB (9%)
  40. Title                                    : John.Wick.Chapter.3.Parabellum.2019.2160p.BluRay.x265.10bit.SDR.DTS-HD.MA.TrueHD.7.1.Atmos-SWTYBLZ
  41. Language                                 : English
  42. Default                                  : Yes
  43. Forced                                   : No
  44. Number of dynamic objects                : 15
  45. Bed channel count                        : 1 channel
  46. Bed channel configuration                : LFE
  47. Audio #2
  48. ID                                       : 3
  49. Format                                   : DTS XLL
  50. Format/Info                              : Digital Theater Systems
  51. Commercial name                          : DTS-HD Master Audio
  52. Codec ID                                 : A_DTS
  53. Duration                                 : 2 h 10 min
  54. Bit rate mode                            : Variable
  55. Bit rate                                 : 4 439 kb/s
  56. Channel(s)                               : 8 channels
  57. Channel layout                           : C L R LFE Lb Rb Lss Rss
  58. Sampling rate                            : 48.0 kHz
  59. Frame rate                               : 93.750 FPS (512 SPF)
  60. Bit depth                                : 24 bits
  61. Compression mode                         : Lossless
  62. Stream size                              : 4.05 GiB (9%)
  63. Title                                    : John.Wick.Chapter.3.Parabellum.2019.2160p.BluRay.x265.10bit.SDR.DTS-HD.MA.TrueHD.7.1.Atmos-SWTYBLZ
  64. Language                                 : English
  65. Default                                  : No
  66. Forced                                   : No
  67. Audio #3
  68. ID                                       : 4
  69. Format                                   : AC-3
  70. Format/Info                              : Audio Coding 3
  71. Commercial name                          : Dolby Digital
  72. Codec ID                                 : A_AC3
  73. Duration                                 : 2 h 10 min
  74. Bit rate mode                            : Constant
  75. Bit rate                                 : 640 kb/s
  76. Channel(s)                               : 6 channels
  77. Channel layout                           : L R C LFE Ls Rs
  78. Sampling rate                            : 48.0 kHz
  79. Frame rate                               : 31.250 FPS (1536 SPF)
  80. Bit depth                                : 16 bits
  81. Compression mode                         : Lossy
  82. Stream size                              : 599 MiB (1%)
  83. Title                                    : John.Wick.Chapter.3.Parabellum.2019.2160p.BluRay.x265.10bit.SDR.DTS-HD.MA.TrueHD.7.1.Atmos-SWTYBLZ
  84. Language                                 : English
  85. Service kind                             : Complete Main
  86. Default                                  : No
  87. Forced                                   : No
  88. Text #1
  89. ID                                       : 5
  90. Format                                   : UTF-8
  91. Codec ID                                 : S_TEXT/UTF8
  92. Codec ID/Info                            : UTF-8 Plain Text
  93. Duration                                 : 1 h 59 min
  94. Bit rate                                 : 24 b/s
  95. Count of elements                        : 683
  96. Stream size                              : 21.1 KiB (0%)
  97. Title                                    : English-SRT
  98. Language                                 : English
  99. Default                                  : Yes
  100. Forced                                   : No
  101. Text #2
  102. ID                                       : 6
  103. Format                                   : PGS
  104. Muxing mode                              : zlib
  105. Codec ID                                 : S_HDMV/PGS
  106. Codec ID/Info                            : Picture based subtitle format used on BDs/HD-DVDs
  107. Duration                                 : 1 h 59 min
  108. Bit rate                                 : 17.0 kb/s
  109. Count of elements                        : 1370
  110. Stream size                              : 14.6 MiB (0%)
  111. Title                                    : English-PGS
  112. Language                                 : English
  113. Default                                  : No
  114. Forced                                   : No
  115. Text #3
  116. ID                                       : 7
  117. Format                                   : PGS
  118. Muxing mode                              : zlib
  119. Codec ID                                 : S_HDMV/PGS
  120. Codec ID/Info                            : Picture based subtitle format used on BDs/HD-DVDs
  121. Duration                                 : 2 h 0 min
  122. Bit rate                                 : 22.1 kb/s
  123. Count of elements                        : 2042
  124. Stream size                              : 19.1 MiB (0%)
  125. Title                                    : English-SDH-PGS
  126. Language                                 : English
  127. Default                                  : No
  128. Forced                                   : No
  129. Text #4
  130. ID                                       : 8
  131. Format                                   : PGS
  132. Muxing mode                              : zlib
  133. Codec ID                                 : S_HDMV/PGS
  134. Codec ID/Info                            : Picture based subtitle format used on BDs/HD-DVDs
  135. Duration                                 : 1 h 59 min
  136. Bit rate                                 : 17.2 kb/s
  137. Count of elements                        : 1672
  138. Stream size                              : 14.8 MiB (0%)
  139. Title                                    : French-PGS
  140. Language                                 : French
  141. Default                                  : No
  142. Forced                                   : No
  143. Text #5
  144. ID                                       : 9
  145. Format                                   : PGS
  146. Muxing mode                              : zlib
  147. Codec ID                                 : S_HDMV/PGS
  148. Codec ID/Info                            : Picture based subtitle format used on BDs/HD-DVDs
  149. Duration                                 : 1 h 59 min
  150. Bit rate                                 : 12.7 kb/s
  151. Count of elements                        : 1254
  152. Stream size                              : 10.9 MiB (0%)
  153. Title                                    : Italian-PGS
  154. Language                                 : Italian
  155. Default                                  : No
  156. Forced                                   : No
  157. Text #6
  158. ID                                       : 10
  159. Format                                   : PGS
  160. Muxing mode                              : zlib
  161. Codec ID                                 : S_HDMV/PGS
  162. Codec ID/Info                            : Picture based subtitle format used on BDs/HD-DVDs
  163. Duration                                 : 2 h 0 min
  164. Bit rate                                 : 17.5 kb/s
  165. Count of elements                        : 1538
  166. Stream size                              : 15.1 MiB (0%)
  167. Title                                    : Spanish-PGS
  168. Language                                 : Spanish
  169. Default                                  : No
  170. Forced                                   : No
  171. Menu
  172. 00:00:00.000                             : en:Chapter 01
  173. 00:08:46.860                             : en:Chapter 02
  174. 00:14:06.763                             : en:Chapter 03
  175. 00:22:40.401                             : en:Chapter 04
  176. 00:31:26.301                             : en:Chapter 05
  177. 00:37:51.311                             : en:Chapter 06
  178. 00:47:43.319                             : en:Chapter 07
  179. 00:57:09.176                             : en:Chapter 08
  180. 01:02:56.439                             : en:Chapter 09
  181. 01:14:27.672                             : en:Chapter 10
  182. 01:20:36.665                             : en:Chapter 11
  183. 01:28:48.365                             : en:Chapter 12
  184. 01:33:51.793                             : en:Chapter 13
  185. 01:41:31.794                             : en:Chapter 14
  186. 01:53:44.651                             : en:Chapter 15
  187. 01:59:51.434                             : en:Chapter 16
复制代码










                                       
                                       

                                       
                                       
                                       




快速备战 John.Wick.Chapter.3.Parabellum.2019.2160p.BluRay.x265.10bit.SDR.DTS-HD.MA.TrueHD.7.1.Atmos-SWTYBLZ 43.12GB

John.Wick.Chapter.3.Parabellum.2019.2160p.BluRay.x265.10bit.SDR.DTS-HD.MA.TrueHD.torrent

108.49 KB, 下载次数: 20, 下载积分: 蓝光币 -2

回复

使用道具 举报

懒得打字嘛,点击右侧快捷回复 【右侧内容,后台自定义】
您需要登录后才可以回帖 登录 | 立即加入

本版积分规则

Copyright © 2024 Comsenz Inc. Powered by 蓝光电影网

本站内容由用户自主分享和转载自互联网,转载目的在于传递更多信息,并不代表本网赞同其观点和对其真实性负责。

如有侵权、违反国家法律政策行为,请联系我们,我们会第一时间及时清除和处理!

举报反馈邮箱:4k1080.com@gmail.com

快速回复 返回顶部 返回列表