找回密码

查看: 1171|回复: 0

[UHD.HEVC] 破茧威龙 Lock.Up.1989.2160p.BluRay.REMUX.HEVC.DTS-HD.MA.5.1-FGT 57.86GB

[复制链接]
蓝光币
1856
发表于 2019-9-9 14:31:02 | 显示全部楼层 |阅读模式


◎译  名 破茧威龙 / Condena brutal / 黑狱灾星
◎片  名 Lock Up
◎年  代 1989
◎产  地 美国
◎类  别 行动 / 惊悚 / 犯罪
◎语  言 英语
◎上映日期 1989-08-04(美国)
◎IMDb评分  6.4/10 from 35447 users
◎IMDb链接  http://www.imdb.com/title/tt0097770
◎豆瓣评分 7.0/10 from 1142 users
◎豆瓣链接 https://movie.douban.com/subject/1299316/
◎片  长 109分钟
◎导  演 约翰·弗林 John Flynn
◎编  剧 Richard Smith / 杰布·斯图尔特 Jeb Stuart / 亨利·罗森鲍姆 Henry Rosenbaum
◎主  演 西尔维斯特·史泰龙 Sylvester Stallone
       唐纳德·萨瑟兰 Donald Sutherland
       约翰·阿莫斯 John Amos
       索尼·兰哈姆 Sonny Landham
       汤姆·塞兹摩尔 Tom Sizemore
       Frank McRae

◎标  签 史泰龙 | 行动 | 美国 | 牢狱 | 犯罪 | 1989 | 美国电影 | 剧情
◎简  介  
  榜样监犯弗兰克?莱昂尼(西尔维斯特?史泰龙 Sylvester Stallone 饰)的刑期还剩半年,他定期可之外出与女友碰头,这个昔日的修车技师看中了一处仓库作为往后的修理部,普通的生活在期待着他。但是某天他忽然被转移到情况卑劣的盖特威牢狱,全因五年前他为了见师父兼养父的最初一面,从牢狱长庄古(唐纳德?萨瑟兰 Donald Sutherland 饰)的治下逃走。弗兰克逃狱成功成为豪杰,而庄古却蒙受惩罚怀恨在心。现在,庄古将弗兰克重新把握,寻机报仇。
  弗兰克遭到了庄古及手下的卑劣看待,但始终哑忍,而且渐渐在牢狱中结交了几个朋友,包括始终想逃狱的囚房万事通、消瘦年轻的“杀手”和狱中修理厂的负责人,死板的生活有了好转,可是庄古始终冷静注视着他,预备给他更大的疾苦……
  1. Video #1
  2. ID                                       : 1
  3. Format                                   : HEVC
  4. Format/Info                              : High Efficiency Video Coding
  5. Format profile                           : Main [email protected]@High
  6. HDR format                               : SMPTE ST 2086, HDR10 compatible
  7. Codec ID                                 : V_MPEGH/ISO/HEVC
  8. Duration                                 : 1 h 48 min
  9. Bit rate                                 : 67.5 Mb/s
  10. Width                                    : 3 840 pixels
  11. Height                                   : 2 160 pixels
  12. Display aspect ratio                     : 16:9
  13. Frame rate mode                          : Constant
  14. Frame rate                               : 24.000 FPS
  15. Color space                              : YUV
  16. Chroma subsampling                       : 4:2:0 (Type 2)
  17. Bit depth                                : 10 bits
  18. Bits/(Pixel*Frame)                       : 0.339
  19. Stream size                              : 51.2 GiB (89%)
  20. Title                                    : Lock.Up.1989.2160p.BluRay.REMUX.HEVC.DTS-HD.MA.5.1-FGT
  21. Language                                 : English
  22. Default                                  : Yes
  23. Forced                                   : No
  24. Color range                              : Limited
  25. Color primaries                          : BT.2020
  26. Transfer characteristics                 : PQ
  27. Matrix coefficients                      : BT.2020 non-constant
  28. Mastering display color primaries        : Display P3
  29. Mastering display luminance              : min: 0.0001 cd/m2, max: 1000 cd/m2
  30. Maximum Content Light Level              : 987 cd/m2
  31. Maximum Frame-Average Light Level        : 407 cd/m2
  32. Video #2
  33. ID                                       : 2
  34. Format                                   : HEVC
  35. Format/Info                              : High Efficiency Video Coding
  36. Format profile                           : Main [email protected]@High
  37. HDR format                               : SMPTE ST 2086, HDR10 compatible
  38. Codec ID                                 : V_MPEGH/ISO/HEVC
  39. Duration                                 : 1 h 48 min
  40. Bit rate                                 : 3 264 kb/s
  41. Width                                    : 1 920 pixels
  42. Height                                   : 1 080 pixels
  43. Display aspect ratio                     : 16:9
  44. Frame rate mode                          : Constant
  45. Frame rate                               : 24.000 FPS
  46. Color space                              : YUV
  47. Chroma subsampling                       : 4:2:0 (Type 2)
  48. Bit depth                                : 10 bits
  49. Bits/(Pixel*Frame)                       : 0.066
  50. Stream size                              : 2.48 GiB (4%)
  51. Title                                    : Lock.Up.1989.2160p.BluRay.REMUX.HEVC.DTS-HD.MA.5.1-FGT
  52. Default                                  : No
  53. Forced                                   : No
  54. Color range                              : Limited
  55. Color primaries                          : BT.2020
  56. Transfer characteristics                 : PQ
  57. Matrix coefficients                      : BT.2020 non-constant
  58. Mastering display color primaries        : Display P3
  59. Mastering display luminance              : min: 0.0001 cd/m2, max: 1000 cd/m2
  60. Audio #1
  61. ID                                       : 3
  62. Format                                   : DTS XLL
  63. Format/Info                              : Digital Theater Systems
  64. Commercial name                          : DTS-HD Master Audio
  65. Codec ID                                 : A_DTS
  66. Duration                                 : 1 h 48 min
  67. Bit rate mode                            : Variable
  68. Bit rate                                 : 3 982 kb/s
  69. Channel(s)                               : 6 channels
  70. Channel layout                           : C L R Ls Rs LFE
  71. Sampling rate                            : 48.0 kHz
  72. Frame rate                               : 93.750 FPS (512 SPF)
  73. Bit depth                                : 24 bits
  74. Compression mode                         : Lossless
  75. Stream size                              : 3.02 GiB (5%)
  76. Title                                    : Lock.Up.1989.2160p.BluRay.REMUX.HEVC.DTS-HD.MA.5.1-FGT
  77. Language                                 : English
  78. Default                                  : Yes
  79. Forced                                   : No
  80. Audio #2
  81. ID                                       : 4
  82. Format                                   : DTS XLL
  83. Format/Info                              : Digital Theater Systems
  84. Commercial name                          : DTS-HD Master Audio
  85. Codec ID                                 : A_DTS
  86. Duration                                 : 1 h 48 min
  87. Bit rate mode                            : Variable
  88. Bit rate                                 : 1 443 kb/s
  89. Channel(s)                               : 2 channels
  90. Channel layout                           : L R
  91. Sampling rate                            : 48.0 kHz
  92. Frame rate                               : 93.750 FPS (512 SPF)
  93. Bit depth                                : 24 bits
  94. Compression mode                         : Lossless
  95. Stream size                              : 1.10 GiB (2%)
  96. Title                                    : Lock.Up.1989.2160p.BluRay.REMUX.HEVC.DTS-HD.MA.5.1-FGT
  97. Language                                 : Spanish
  98. Default                                  : No
  99. Forced                                   : No
  100. Text #1
  101. ID                                       : 5
  102. Format                                   : UTF-8
  103. Codec ID                                 : S_TEXT/UTF8
  104. Codec ID/Info                            : UTF-8 Plain Text
  105. Duration                                 : 1 h 42 min
  106. Bit rate                                 : 41 b/s
  107. Count of elements                        : 1118
  108. Stream size                              : 31.0 KiB (0%)
  109. Title                                    : English-SRT
  110. Language                                 : English
  111. Default                                  : Yes
  112. Forced                                   : No
  113. Text #2
  114. ID                                       : 6
  115. Format                                   : PGS
  116. Muxing mode                              : zlib
  117. Codec ID                                 : S_HDMV/PGS
  118. Codec ID/Info                            : Picture based subtitle format used on BDs/HD-DVDs
  119. Duration                                 : 1 h 42 min
  120. Bit rate                                 : 22.2 kb/s
  121. Count of elements                        : 2254
  122. Stream size                              : 16.2 MiB (0%)
  123. Title                                    : English-PGS
  124. Language                                 : English
  125. Default                                  : No
  126. Forced                                   : No
  127. Text #3
  128. ID                                       : 7
  129. Format                                   : PGS
  130. Muxing mode                              : zlib
  131. Codec ID                                 : S_HDMV/PGS
  132. Codec ID/Info                            : Picture based subtitle format used on BDs/HD-DVDs
  133. Duration                                 : 1 h 46 min
  134. Bit rate                                 : 24.4 kb/s
  135. Count of elements                        : 2160
  136. Stream size                              : 18.6 MiB (0%)
  137. Title                                    : Spanish-PGS
  138. Language                                 : Spanish
  139. Default                                  : No
  140. Forced                                   : No
  141. Menu
  142. 00:00:00.000                             : en:Chapter 01
  143. 00:08:11.750                             : en:Chapter 02
  144. 00:18:44.500                             : en:Chapter 03
  145. 00:26:06.791                             : en:Chapter 04
  146. 00:32:52.791                             : en:Chapter 05
  147. 00:40:58.291                             : en:Chapter 06
  148. 00:54:47.791                             : en:Chapter 07
  149. 01:06:00.791                             : en:Chapter 08
  150. 01:15:18.958                             : en:Chapter 09
  151. 01:23:07.708                             : en:Chapter 10
  152. 01:36:07.708                             : en:Chapter 11
  153. 01:44:56.916                             : en:Chapter 12
复制代码






                                       
                                       

                                       
                                       
                                       




回复

使用道具 举报

懒得打字嘛,点击右侧快捷回复 【右侧内容,后台自定义】
您需要登录后才可以回帖 登录 | 立即加入

本版积分规则

Copyright © 2024 Comsenz Inc. Powered by 蓝光电影网

本站内容由用户自主分享和转载自互联网,转载目的在于传递更多信息,并不代表本网赞同其观点和对其真实性负责。

如有侵权、违反国家法律政策行为,请联系我们,我们会第一时间及时清除和处理!

举报反馈邮箱:4k1080.com@gmail.com

快速回复 返回顶部 返回列表