找回密码

查看: 1045|回复: 0

[2160p] 现代启示录/当代启示录 Apocalypse.Now.1979.Redux.2160p.BluRay.x264.8bit.SDR.DTS-HD.MA.TrueHD.7.1.Atmos-SWTYBLZ 67.91GB

[复制链接]
蓝光币
1840
发表于 2019-8-31 03:27:31 | 显示全部楼层 |阅读模式


◎译  名 现代启迪录 / 今世启迪录
◎片  名 Apocalypse Now
◎年  代 1979
◎产  地 美国
◎类  别 剧情 / 战争
◎语  言 英语 / 法语 / 高棉语 / 越南语
◎上映日期 1979-05-19(戛纳电影节) / 1979-08-15(美国)
◎IMDb评分  8.4/10 from 556043 users
◎IMDb链接  http://www.imdb.com/title/tt0078788
◎豆瓣评分 8.4/10 from 63583 users
◎豆瓣链接 https://movie.douban.com/subject/1292260/
◎片  长 147分钟(公映版)
◎导  演 弗朗西斯·福特·科波拉 Francis Ford Coppola
◎编  剧 约翰·米利厄斯 John Milius / 弗朗西斯·福特·科波拉 Francis Ford Coppola / 迈克尔·海尔 Michael Herr / 约瑟夫·康拉德 Joseph Conrad
◎主  演 马龙·白兰度 Marlon Brando
       马丁·辛 Martin Sheen
       罗伯特·杜瓦尔 Robert Duvall
       弗雷德里克·福瑞斯特 Frederic Forrest
       山姆·伯顿斯 Sam Bottoms
       劳伦斯·菲什伯恩 Laurence Fishburne
       阿尔伯特·海尔 Albert Hall
       哈里森·福特 Harrison Ford
       丹尼斯·霍珀 Dennis Hopper
       G·D·斯普拉德林 G.D. Spradlin
       斯科特·格伦 Scott Glenn
       詹姆斯·基恩 James Keane
       Kerry Rossall
       辛西娅·伍德 Cynthia Wood
       考林·加普 Colleen Camp
       Linda Carpenter
       杰克·唐蒂博 Jack Thibeau
       Glenn Walken
       达米安·利克 Damien Leake
       Herb Rice
       Marc Coppola
       比尔·格雷厄姆 Bill Graham
       Jerry Ross
       Dick White
       克里斯蒂安·马康 Christian Marquand
       奥萝尔·克莱芒 Aurore Clément
       Franck Villard
       罗曼·科波拉 Roman Coppola
       吉安-卡洛·科波拉 Gian-Carlo Coppola
       弗朗西斯·福特·科波拉 Francis Ford Coppola
       李·厄米 R. Lee Ermey
       乔·艾斯特维兹 Joe Estevez
       拉瑞·弗兰科 Larry J. Franco
       吉姆·盖恩斯 Jim Gaines
       Evan A. Lottman
       Charles Robinson
       维托里奥·斯托拉罗 Vittorio Storaro

◎标  签 战争 | 越战 | 美国 | 人性 | 弗朗西斯·福特·科波拉 | 典范 | 美国电影 | 科波拉
◎简  介  
  越战前期,美军上尉威拉德(马丁?辛 Martin Sheen 饰)受命沿湄公河而上,搜寻离开美军在柬埔寨建立了自己的王国的科茨(马龙?白兰度 Marlon Brando 饰)上尉,将他带回或杀死。科茨上尉已经是美军在越战中的豪杰,战功赫赫。但是,忽然有一天,他失落了。随后,情报指出他在柬埔扎建立了自己的王国,自己的军队,专门否决美军。
  威拉德与几名流兵一路沿河而上,途中他们目击了各种暴行、杀戮,目击了不管美军兵士还是当地人在持久的战争中精神扭曲,做出的各种非一般的行为,威拉德感应了极大的震动。
  威拉德最初在柬埔寨科茨的王国中被当地人捉住,见到了科茨。但是,科茨竟欲求一死,叫威拉德将这里炸为高山……
◎获奖情况  
  第52届奥斯卡金像奖(1980)
  最好影片(提名) 弗雷德·鲁斯 / 弗朗西斯·福特·科波拉 / 加里·弗雷德里克森 / 汤姆·斯滕伯格
  最好导演(提名) 弗朗西斯·福特·科波拉
  最好男配角(提名) 罗伯特·杜瓦尔
  最好改编剧本(提名) 弗朗西斯·福特·科波拉 / 约翰·米利厄斯
  最好摄影 维托里奥·斯托拉罗
  最好剪辑(提名) 沃尔特·默奇 / 杰拉德·B·格林伯格 / 理查德·马克斯 / 丽莎·弗拉特曼
  最好声响 理查德·贝格斯 / 内森·博克瑟 / 马克·伯格 / 沃尔特·默奇
  最好艺术指导(提名) 乔治·R·尼尔森 / 迪安·塔沃拉里斯 / 安杰洛·P·格雷厄姆
  第32届戛纳电影节(1979)
  主比赛单元 金棕榈奖 弗朗西斯·福特·科波拉
  费比西奖 比赛单元奖 弗朗西斯·福特·科波拉
  1. Video
  2. ID                                       : 1
  3. Format                                   : AVC
  4. Format/Info                              : Advanced Video Codec
  5. Format profile                           : [email protected]
  6. Format settings                          : CABAC / 5 Ref Frames
  7. Format settings, CABAC                   : Yes
  8. Format settings, Reference frames        : 5 frames
  9. Codec ID                                 : V_MPEG4/ISO/AVC
  10. Duration                                 : 3 h 16 min
  11. Bit rate                                 : 38.3 Mb/s
  12. Width                                    : 3 840 pixels
  13. Height                                   : 1 606 pixels
  14. Display aspect ratio                     : 2.40:1
  15. Frame rate mode                          : Constant
  16. Frame rate                               : 23.976 (24000/1001) FPS
  17. Color space                              : YUV
  18. Chroma subsampling                       : 4:2:0
  19. Bit depth                                : 8 bits
  20. Scan type                                : Progressive
  21. Bits/(Pixel*Frame)                       : 0.259
  22. Stream size                              : 52.5 GiB (78%)
  23. Title                                    : Apocalypse.Now.1979.Redux.2160p.BluRay.x264.8bit.SDR.DTS-HD.MA.TrueHD.7.1.Atmos-SWTYBLZ
  24. Writing library                          : x264 core 157 r2935 545de2f
  25. Encoding settings                        : cabac=1 / ref=5 / deblock=1:-1:-1 / analyse=0x3:0x113 / me=umh / subme=10 / psy=1 / psy_rd=1.00:0.15 / mixed_ref=1 / me_range=48 / chroma_me=1 / trellis=2 / 8x8dct=1 / cqm=0 / deadzone=21,11 / fast_pskip=1 / chroma_qp_offset=-3 / threads=48 / lookahead_threads=4 / sliced_threads=0 / nr=0 / decimate=0 / interlaced=0 / bluray_compat=0 / constrained_intra=0 / bframes=3 / b_pyramid=2 / b_adapt=2 / b_bias=0 / direct=3 / weightb=1 / open_gop=0 / weightp=2 / keyint=250 / keyint_min=23 / scenecut=40 / intra_refresh=0 / rc_lookahead=50 / rc=crf / mbtree=1 / crf=20.0 / qcomp=0.60 / qpmin=0 / qpmax=69 / qpstep=4 / ip_ratio=1.40 / aq=1:1.00
  26. Default                                  : Yes
  27. Forced                                   : No
  28. Audio #1
  29. ID                                       : 2
  30. Format                                   : MLP FBA 16-ch
  31. Format/Info                              : Meridian Lossless Packing FBA with 16-channel presentation
  32. Commercial name                          : Dolby TrueHD with Dolby Atmos
  33. Codec ID                                 : A_TRUEHD
  34. Duration                                 : 3 h 16 min
  35. Bit rate mode                            : Variable
  36. Bit rate                                 : 5 935 kb/s
  37. Maximum bit rate                         : 7 701 kb/s
  38. Channel(s)                               : 8 channels
  39. Channel layout                           : L R C LFE Ls Rs Lb Rb
  40. Sampling rate                            : 48.0 kHz
  41. Frame rate                               : 1 200.000 FPS (40 SPF)
  42. Compression mode                         : Lossless
  43. Stream size                              : 8.13 GiB (12%)
  44. Title                                    : Apocalypse.Now.1979.Redux.2160p.BluRay.x264.8bit.SDR.DTS-HD.MA.TrueHD.7.1.Atmos-SWTYBLZ
  45. Language                                 : English
  46. Default                                  : Yes
  47. Forced                                   : No
  48. Number of dynamic objects                : 11
  49. Bed channel count                        : 1 channel
  50. Bed channel configuration                : LFE
  51. Audio #2
  52. ID                                       : 3
  53. Format                                   : DTS XLL
  54. Format/Info                              : Digital Theater Systems
  55. Commercial name                          : DTS-HD Master Audio
  56. Codec ID                                 : A_DTS
  57. Duration                                 : 3 h 16 min
  58. Bit rate mode                            : Variable
  59. Bit rate                                 : 4 582 kb/s
  60. Channel(s)                               : 8 channels
  61. Channel layout                           : C L R LFE Lb Rb Lss Rss
  62. Sampling rate                            : 48.0 kHz
  63. Frame rate                               : 93.750 FPS (512 SPF)
  64. Bit depth                                : 24 bits
  65. Compression mode                         : Lossless
  66. Stream size                              : 6.27 GiB (9%)
  67. Title                                    : Apocalypse.Now.1979.Redux.2160p.BluRay.x264.8bit.SDR.DTS-HD.MA.TrueHD.7.1.Atmos-SWTYBLZ
  68. Language                                 : English
  69. Default                                  : No
  70. Forced                                   : No
  71. Audio #3
  72. ID                                       : 4
  73. Format                                   : AC-3
  74. Format/Info                              : Audio Coding 3
  75. Commercial name                          : Dolby Digital
  76. Codec ID                                 : A_AC3
  77. Duration                                 : 3 h 16 min
  78. Bit rate mode                            : Constant
  79. Bit rate                                 : 448 kb/s
  80. Channel(s)                               : 6 channels
  81. Channel layout                           : L R C LFE Ls Rs
  82. Sampling rate                            : 48.0 kHz
  83. Frame rate                               : 31.250 FPS (1536 SPF)
  84. Bit depth                                : 16 bits
  85. Compression mode                         : Lossy
  86. Stream size                              : 628 MiB (1%)
  87. Title                                    : Apocalypse.Now.1979.Redux.2160p.BluRay.x264.8bit.SDR.DTS-HD.MA.TrueHD.7.1.Atmos-SWTYBLZ
  88. Language                                 : English
  89. Service kind                             : Complete Main
  90. Default                                  : No
  91. Forced                                   : No
  92. Text #1
  93. ID                                       : 5
  94. Format                                   : UTF-8
  95. Codec ID                                 : S_TEXT/UTF8
  96. Codec ID/Info                            : UTF-8 Plain Text
  97. Duration                                 : 3 h 11 min
  98. Bit rate                                 : 53 b/s
  99. Count of elements                        : 1951
  100. Stream size                              : 75.0 KiB (0%)
  101. Title                                    : English-SRT
  102. Language                                 : English
  103. Default                                  : Yes
  104. Forced                                   : No
  105. Text #2
  106. ID                                       : 6
  107. Format                                   : PGS
  108. Muxing mode                              : zlib
  109. Codec ID                                 : S_HDMV/PGS
  110. Codec ID/Info                            : Picture based subtitle format used on BDs/HD-DVDs
  111. Duration                                 : 3 h 11 min
  112. Bit rate                                 : 37.3 kb/s
  113. Count of elements                        : 3922
  114. Stream size                              : 50.9 MiB (0%)
  115. Title                                    : English-PGS
  116. Language                                 : English
  117. Default                                  : No
  118. Forced                                   : No
  119. Text #3
  120. ID                                       : 7
  121. Format                                   : PGS
  122. Muxing mode                              : zlib
  123. Codec ID                                 : S_HDMV/PGS
  124. Codec ID/Info                            : Picture based subtitle format used on BDs/HD-DVDs
  125. Duration                                 : 3 h 14 min
  126. Bit rate                                 : 40.7 kb/s
  127. Count of elements                        : 4348
  128. Stream size                              : 56.8 MiB (0%)
  129. Title                                    : English-SDH-PGS
  130. Language                                 : English
  131. Default                                  : No
  132. Forced                                   : No
  133. Text #4
  134. ID                                       : 8
  135. Format                                   : PGS
  136. Muxing mode                              : zlib
  137. Codec ID                                 : S_HDMV/PGS
  138. Codec ID/Info                            : Picture based subtitle format used on BDs/HD-DVDs
  139. Duration                                 : 3 h 11 min
  140. Bit rate                                 : 35.4 kb/s
  141. Count of elements                        : 3940
  142. Stream size                              : 48.3 MiB (0%)
  143. Title                                    : French-PGS
  144. Language                                 : French
  145. Default                                  : No
  146. Forced                                   : No
  147. Text #5
  148. ID                                       : 9
  149. Format                                   : PGS
  150. Muxing mode                              : zlib
  151. Codec ID                                 : S_HDMV/PGS
  152. Codec ID/Info                            : Picture based subtitle format used on BDs/HD-DVDs
  153. Duration                                 : 3 h 11 min
  154. Bit rate                                 : 35.0 kb/s
  155. Count of elements                        : 4088
  156. Stream size                              : 47.9 MiB (0%)
  157. Title                                    : Spanish-PGS
  158. Language                                 : Spanish
  159. Default                                  : No
  160. Forced                                   : No
  161. Menu
  162. 00:00:00.000                             : en:Chapter 01
  163. 00:09:23.396                             : en:Chapter 02
  164. 00:20:22.471                             : en:Chapter 03
  165. 00:24:08.905                             : en:Chapter 04
  166. 00:31:13.329                             : en:Chapter 05
  167. 00:34:09.589                             : en:Chapter 06
  168. 00:45:00.948                             : en:Chapter 07
  169. 00:52:03.870                             : en:Chapter 08
  170. 01:03:25.968                             : en:Chapter 09
  171. 01:17:09.333                             : en:Chapter 10
  172. 01:34:16.942                             : en:Chapter 11
  173. 01:39:35.594                             : en:Chapter 12
  174. 01:49:19.928                             : en:Chapter 13
  175. 01:55:03.104                             : en:Chapter 14
  176. 02:27:39.100                             : en:Chapter 15
  177. 02:36:23.874                             : en:Chapter 16
  178. 02:45:17.866                             : en:Chapter 17
  179. 03:03:08.769                             : en:Chapter 18
  180. 03:10:10.023                             : en:Chapter 19
复制代码










                                       
                                       

                                       
                                       
                                       




现代启迪录/今世启迪录 Apocalypse.Now.1979.Redux.2160p.BluRay.x264.8bit.SDR.DTS-HD.MA.TrueHD.7.1.Atmos-SWTYBLZ 67.91GB

Apocalypse.Now.1979.Redux.2160p.BluRay.x264.8bit.SDR.DTS-HD.MA.TrueHD.7.1.Atmos-.torrent

170.42 KB, 下载次数: 6, 下载积分: 蓝光币 -2

回复

使用道具 举报

懒得打字嘛,点击右侧快捷回复 【右侧内容,后台自定义】
您需要登录后才可以回帖 登录 | 立即加入

本版积分规则

Copyright © 2024 Comsenz Inc. Powered by 蓝光电影网

本站内容由用户自主分享和转载自互联网,转载目的在于传递更多信息,并不代表本网赞同其观点和对其真实性负责。

如有侵权、违反国家法律政策行为,请联系我们,我们会第一时间及时清除和处理!

举报反馈邮箱:4k1080.com@gmail.com

快速回复 返回顶部 返回列表