找回密码

查看: 1044|回复: 0

[2160p] 现代启示录/当代启示录 Apocalypse.Now.1979.Redux.2160p.BluRay.x265.10bit.SDR.DTS-HD.MA.TrueHD.7.1.Atmos-SWTYBLZ 61.87GB

[复制链接]
蓝光币
1840
发表于 2019-8-30 15:43:21 | 显示全部楼层 |阅读模式


◎译  名 现代启迪录 / 今世启迪录
◎片  名 Apocalypse Now
◎年  代 1979
◎产  地 美国
◎类  别 剧情 / 战争
◎语  言 英语 / 法语 / 高棉语 / 越南语
◎上映日期 1979-05-19(戛纳电影节) / 1979-08-15(美国)
◎IMDb评分  8.4/10 from 556043 users
◎IMDb链接  http://www.imdb.com/title/tt0078788
◎豆瓣评分 8.4/10 from 63583 users
◎豆瓣链接 https://movie.douban.com/subject/1292260/
◎片  长 147分钟(公映版)
◎导  演 弗朗西斯·福特·科波拉 Francis Ford Coppola
◎编  剧 约翰·米利厄斯 John Milius / 弗朗西斯·福特·科波拉 Francis Ford Coppola / 迈克尔·海尔 Michael Herr / 约瑟夫·康拉德 Joseph Conrad
◎主  演 马龙·白兰度 Marlon Brando
       马丁·辛 Martin Sheen
       罗伯特·杜瓦尔 Robert Duvall
       弗雷德里克·福瑞斯特 Frederic Forrest
       山姆·伯顿斯 Sam Bottoms
       劳伦斯·菲什伯恩 Laurence Fishburne
       阿尔伯特·海尔 Albert Hall
       哈里森·福特 Harrison Ford
       丹尼斯·霍珀 Dennis Hopper
       G·D·斯普拉德林 G.D. Spradlin
       斯科特·格伦 Scott Glenn
       詹姆斯·基恩 James Keane
       Kerry Rossall
       辛西娅·伍德 Cynthia Wood
       考林·加普 Colleen Camp
       Linda Carpenter
       杰克·唐蒂博 Jack Thibeau
       Glenn Walken
       达米安·利克 Damien Leake
       Herb Rice
       Marc Coppola
       比尔·格雷厄姆 Bill Graham
       Jerry Ross
       Dick White
       克里斯蒂安·马康 Christian Marquand
       奥萝尔·克莱芒 Aurore Clément
       Franck Villard
       罗曼·科波拉 Roman Coppola
       吉安-卡洛·科波拉 Gian-Carlo Coppola
       弗朗西斯·福特·科波拉 Francis Ford Coppola
       李·厄米 R. Lee Ermey
       乔·艾斯特维兹 Joe Estevez
       拉瑞·弗兰科 Larry J. Franco
       吉姆·盖恩斯 Jim Gaines
       Evan A. Lottman
       Charles Robinson
       维托里奥·斯托拉罗 Vittorio Storaro

◎标  签 战争 | 越战 | 美国 | 人性 | 弗朗西斯·福特·科波拉 | 典范 | 美国电影 | 科波拉
◎简  介  
  越战前期,美军上尉威拉德(马丁?辛 Martin Sheen 饰)受命沿湄公河而上,搜寻离开美军在柬埔寨建立了自己的王国的科茨(马龙?白兰度 Marlon Brando 饰)上尉,将他带回或杀死。科茨上尉已经是美军在越战中的豪杰,战功赫赫。但是,忽然有一天,他失落了。随后,情报指出他在柬埔扎建立了自己的王国,自己的军队,专门否决美军。
  威拉德与几名流兵一路沿河而上,途中他们目击了各种暴行、杀戮,目击了不管美军兵士还是当地人在持久的战争中精神扭曲,做出的各种非一般的行为,威拉德感应了极大的震动。
  威拉德最初在柬埔寨科茨的王国中被当地人捉住,见到了科茨。但是,科茨竟欲求一死,叫威拉德将这里炸为高山……
◎获奖情况  
  第52届奥斯卡金像奖(1980)
  最好影片(提名) 弗雷德·鲁斯 / 弗朗西斯·福特·科波拉 / 加里·弗雷德里克森 / 汤姆·斯滕伯格
  最好导演(提名) 弗朗西斯·福特·科波拉
  最好男配角(提名) 罗伯特·杜瓦尔
  最好改编剧本(提名) 弗朗西斯·福特·科波拉 / 约翰·米利厄斯
  最好摄影 维托里奥·斯托拉罗
  最好剪辑(提名) 沃尔特·默奇 / 杰拉德·B·格林伯格 / 理查德·马克斯 / 丽莎·弗拉特曼
  最好声响 理查德·贝格斯 / 内森·博克瑟 / 马克·伯格 / 沃尔特·默奇
  最好艺术指导(提名) 乔治·R·尼尔森 / 迪安·塔沃拉里斯 / 安杰洛·P·格雷厄姆
  第32届戛纳电影节(1979)
  主比赛单元 金棕榈奖 弗朗西斯·福特·科波拉
  费比西奖 比赛单元奖 弗朗西斯·福特·科波拉
  1. Video
  2. ID                                       : 1
  3. Format                                   : HEVC
  4. Format/Info                              : High Efficiency Video Coding
  5. Format profile                           : Main [email protected]@High
  6. Codec ID                                 : V_MPEGH/ISO/HEVC
  7. Duration                                 : 3 h 16 min
  8. Bit rate                                 : 34.0 Mb/s
  9. Width                                    : 3 840 pixels
  10. Height                                   : 1 606 pixels
  11. Display aspect ratio                     : 2.40:1
  12. Frame rate mode                          : Constant
  13. Frame rate                               : 23.976 (24000/1001) FPS
  14. Color space                              : YUV
  15. Chroma subsampling                       : 4:2:0
  16. Bit depth                                : 10 bits
  17. Bits/(Pixel*Frame)                       : 0.230
  18. Stream size                              : 46.5 GiB (75%)
  19. Title                                    : Apocalypse.Now.1979.Redux.2160p.BluRay.x265.10bit.SDR.DTS-HD.MA.TrueHD.7.1.Atmos-SWTYBLZ
  20. Writing library                          : x265 3.0ed72af837053:[Windows][GCC 8.2.0][64 bit] 10bit
  21. Encoding settings                        : cpuid=1111039 / frame-threads=16 / numa-pools=44,44 / wpp / no-pmode / no-pme / no-psnr / no-ssim / log-level=2 / input-csp=1 / input-res=3840x1606 / interlace=0 / total-frames=282048 / level-idc=51 / high-tier=1 / uhd-bd=0 / ref=3 / no-allow-non-conformance / repeat-headers / annexb / aud / hrd / info / hash=0 / no-temporal-layers / no-open-gop / min-keyint=1 / keyint=24 / gop-lookahead=0 / bframes=4 / b-adapt=2 / b-pyramid / bframe-bias=0 / rc-lookahead=25 / lookahead-slices=4 / scenecut=40 / radl=0 / no-splice / no-intra-refresh / ctu=64 / min-cu-size=8 / no-rect / no-amp / max-tu-size=32 / tu-inter-depth=1 / tu-intra-depth=1 / limit-tu=0 / rdoq-level=0 / dynamic-rd=0.00 / no-ssim-rd / signhide / no-tskip / nr-intra=0 / nr-inter=0 / no-constrained-intra / strong-intra-smoothing / max-merge=2 / limit-refs=3 / no-limit-modes / me=1 / subme=2 / merange=57 / temporal-mvp / weightp / no-weightb / no-analyze-src-pics / deblock=0:0 / no-sao / no-sao-non-deblock / rd=3 / no-early-skip / rskip / no-fast-intra / no-tskip-fast / no-cu-lossless / no-b-intra / no-splitrd-skip / rdpenalty=0 / psy-rd=2.00 / psy-rdoq=0.00 / no-rd-refine / no-lossless / cbqpoffs=0 / crqpoffs=0 / rc=crf / crf=18.0 / qcomp=0.60 / qpstep=4 / stats-write=0 / stats-read=0 / vbv-maxrate=160000 / vbv-bufsize=160000 / vbv-init=0.9 / crf-max=0.0 / crf-min=0.0 / ipratio=1.40 / pbratio=1.30 / aq-mode=1 / aq-strength=1.00 / cutree / zone-count=0 / no-strict-cbr / qg-size=32 / no-rc-grain / qpmax=69 / qpmin=0 / no-const-vbv / sar=1 / overscan=0 / videoformat=5 / range=0 / colorprim=2 / transfer=2 / colormatrix=2 / chromaloc=0 / display-window=0 / max-cll=0,0 / min-luma=0 / max-luma=1023 / log2-max-poc-lsb=8 / vui-timing-info / vui-hrd-info / slices=1 / opt-qp-pps / opt-ref-list-length-pps / no-multi-pass-opt-rps / scenecut-bias=0.05 / no-opt-cu-delta-qp / no-aq-motion / no-hdr / no-hdr-opt / no-dhdr10-opt / no-idr-recovery-sei / analysis-reuse-level=5 / scale-factor=0 / refine-intra=0 / refine-inter=0 / refine-mv=0 / refine-ctu-distortion=0 / no-limit-sao / ctu-info=0 / no-lowpass-dct / refine-analysis-type=0 / copy-pic=1 / max-ausize-factor=1.0 / no-dynamic-refine / no-single-sei / no-hevc-aq / qp-adaptation-range=1.00
  22. Default                                  : Yes
  23. Forced                                   : No
  24. Audio #1
  25. ID                                       : 2
  26. Format                                   : MLP FBA 16-ch
  27. Format/Info                              : Meridian Lossless Packing FBA with 16-channel presentation
  28. Commercial name                          : Dolby TrueHD with Dolby Atmos
  29. Codec ID                                 : A_TRUEHD
  30. Duration                                 : 3 h 16 min
  31. Bit rate mode                            : Variable
  32. Bit rate                                 : 5 935 kb/s
  33. Maximum bit rate                         : 7 701 kb/s
  34. Channel(s)                               : 8 channels
  35. Channel layout                           : L R C LFE Ls Rs Lb Rb
  36. Sampling rate                            : 48.0 kHz
  37. Frame rate                               : 1 200.000 FPS (40 SPF)
  38. Compression mode                         : Lossless
  39. Stream size                              : 8.13 GiB (13%)
  40. Title                                    : Apocalypse.Now.1979.Redux.2160p.BluRay.x265.10bit.SDR.DTS-HD.MA.TrueHD.7.1.Atmos-SWTYBLZ
  41. Language                                 : English
  42. Default                                  : Yes
  43. Forced                                   : No
  44. Number of dynamic objects                : 11
  45. Bed channel count                        : 1 channel
  46. Bed channel configuration                : LFE
  47. Audio #2
  48. ID                                       : 3
  49. Format                                   : DTS XLL
  50. Format/Info                              : Digital Theater Systems
  51. Commercial name                          : DTS-HD Master Audio
  52. Codec ID                                 : A_DTS
  53. Duration                                 : 3 h 16 min
  54. Bit rate mode                            : Variable
  55. Bit rate                                 : 4 582 kb/s
  56. Channel(s)                               : 8 channels
  57. Channel layout                           : C L R LFE Lb Rb Lss Rss
  58. Sampling rate                            : 48.0 kHz
  59. Frame rate                               : 93.750 FPS (512 SPF)
  60. Bit depth                                : 24 bits
  61. Compression mode                         : Lossless
  62. Stream size                              : 6.27 GiB (10%)
  63. Title                                    : Apocalypse.Now.1979.Redux.2160p.BluRay.x265.10bit.SDR.DTS-HD.MA.TrueHD.7.1.Atmos-SWTYBLZ
  64. Language                                 : English
  65. Default                                  : No
  66. Forced                                   : No
  67. Audio #3
  68. ID                                       : 4
  69. Format                                   : AC-3
  70. Format/Info                              : Audio Coding 3
  71. Commercial name                          : Dolby Digital
  72. Codec ID                                 : A_AC3
  73. Duration                                 : 3 h 16 min
  74. Bit rate mode                            : Constant
  75. Bit rate                                 : 448 kb/s
  76. Channel(s)                               : 6 channels
  77. Channel layout                           : L R C LFE Ls Rs
  78. Sampling rate                            : 48.0 kHz
  79. Frame rate                               : 31.250 FPS (1536 SPF)
  80. Bit depth                                : 16 bits
  81. Compression mode                         : Lossy
  82. Stream size                              : 628 MiB (1%)
  83. Title                                    : Apocalypse.Now.1979.Redux.2160p.BluRay.x265.10bit.SDR.DTS-HD.MA.TrueHD.7.1.Atmos-SWTYBLZ
  84. Language                                 : English
  85. Service kind                             : Complete Main
  86. Default                                  : No
  87. Forced                                   : No
  88. Text #1
  89. ID                                       : 5
  90. Format                                   : UTF-8
  91. Codec ID                                 : S_TEXT/UTF8
  92. Codec ID/Info                            : UTF-8 Plain Text
  93. Duration                                 : 3 h 11 min
  94. Bit rate                                 : 53 b/s
  95. Count of elements                        : 1951
  96. Stream size                              : 75.0 KiB (0%)
  97. Title                                    : English-SRT
  98. Language                                 : English
  99. Default                                  : Yes
  100. Forced                                   : No
  101. Text #2
  102. ID                                       : 6
  103. Format                                   : PGS
  104. Muxing mode                              : zlib
  105. Codec ID                                 : S_HDMV/PGS
  106. Codec ID/Info                            : Picture based subtitle format used on BDs/HD-DVDs
  107. Duration                                 : 3 h 11 min
  108. Bit rate                                 : 37.3 kb/s
  109. Count of elements                        : 3922
  110. Stream size                              : 50.9 MiB (0%)
  111. Title                                    : English-PGS
  112. Language                                 : English
  113. Default                                  : No
  114. Forced                                   : No
  115. Text #3
  116. ID                                       : 7
  117. Format                                   : PGS
  118. Muxing mode                              : zlib
  119. Codec ID                                 : S_HDMV/PGS
  120. Codec ID/Info                            : Picture based subtitle format used on BDs/HD-DVDs
  121. Duration                                 : 3 h 14 min
  122. Bit rate                                 : 40.7 kb/s
  123. Count of elements                        : 4348
  124. Stream size                              : 56.8 MiB (0%)
  125. Title                                    : English-SDH-PGS
  126. Language                                 : English
  127. Default                                  : No
  128. Forced                                   : No
  129. Text #4
  130. ID                                       : 8
  131. Format                                   : PGS
  132. Muxing mode                              : zlib
  133. Codec ID                                 : S_HDMV/PGS
  134. Codec ID/Info                            : Picture based subtitle format used on BDs/HD-DVDs
  135. Duration                                 : 3 h 11 min
  136. Bit rate                                 : 35.4 kb/s
  137. Count of elements                        : 3940
  138. Stream size                              : 48.3 MiB (0%)
  139. Title                                    : French-PGS
  140. Language                                 : French
  141. Default                                  : No
  142. Forced                                   : No
  143. Text #5
  144. ID                                       : 9
  145. Format                                   : PGS
  146. Muxing mode                              : zlib
  147. Codec ID                                 : S_HDMV/PGS
  148. Codec ID/Info                            : Picture based subtitle format used on BDs/HD-DVDs
  149. Duration                                 : 3 h 11 min
  150. Bit rate                                 : 35.0 kb/s
  151. Count of elements                        : 4088
  152. Stream size                              : 47.9 MiB (0%)
  153. Title                                    : Spanish-PGS
  154. Language                                 : Spanish
  155. Default                                  : No
  156. Forced                                   : No
  157. Menu
  158. 00:00:00.000                             : en:Chapter 01
  159. 00:09:23.396                             : en:Chapter 02
  160. 00:20:22.471                             : en:Chapter 03
  161. 00:24:08.905                             : en:Chapter 04
  162. 00:31:13.329                             : en:Chapter 05
  163. 00:34:09.589                             : en:Chapter 06
  164. 00:45:00.948                             : en:Chapter 07
  165. 00:52:03.870                             : en:Chapter 08
  166. 01:03:25.968                             : en:Chapter 09
  167. 01:17:09.333                             : en:Chapter 10
  168. 01:34:16.942                             : en:Chapter 11
  169. 01:39:35.594                             : en:Chapter 12
  170. 01:49:19.928                             : en:Chapter 13
  171. 01:55:03.104                             : en:Chapter 14
  172. 02:27:39.100                             : en:Chapter 15
  173. 02:36:23.874                             : en:Chapter 16
  174. 02:45:17.866                             : en:Chapter 17
  175. 03:03:08.769                             : en:Chapter 18
  176. 03:10:10.023                             : en:Chapter 19
复制代码










                                       
                                       

                                       
                                       
                                       




现代启迪录/今世启迪录 Apocalypse.Now.1979.Redux.2160p.BluRay.x265.10bit.SDR.DTS-HD.MA.TrueHD.7.1.Atmos-SWTYBLZ 61.87GB

Apocalypse.Now.1979.Redux.2160p.BluRay.x265.10bit.SDR.DTS-HD.MA.TrueHD.7.1.Atmos.torrent

155.34 KB, 下载次数: 5, 下载积分: 蓝光币 -2

回复

使用道具 举报

懒得打字嘛,点击右侧快捷回复 【右侧内容,后台自定义】
您需要登录后才可以回帖 登录 | 立即加入

本版积分规则

Copyright © 2024 Comsenz Inc. Powered by 蓝光电影网

本站内容由用户自主分享和转载自互联网,转载目的在于传递更多信息,并不代表本网赞同其观点和对其真实性负责。

如有侵权、违反国家法律政策行为,请联系我们,我们会第一时间及时清除和处理!

举报反馈邮箱:4k1080.com@gmail.com

快速回复 返回顶部 返回列表