找回密码

查看: 1384|回复: 2

[2160p] 赛车总动员/反斗车王 Cars.2006.2160p.BluRay.x264.8bit.SDR.TrueHD.7.1.Atmos-SWTYBLZ 27.23GB

[复制链接]
蓝光币
1840
发表于 2019-9-10 17:01:20 | 显示全部楼层 |阅读模式


◎译  名 赛车总带动 / 反斗车王(港) / 小汽车的故事 / 汽车总带动 / 飞车正传
◎片  名 Cars
◎年  代 2006
◎产  地 美国
◎类  别 笑剧 / 动画 / 冒险
◎语  言 英语 / 意大利语 / 日语 / 依地语
◎上映日期 2006-06-09(美国) / 2006-08-22(中国大陆)
◎IMDb评分  7.1/10 from 335631 users
◎IMDb链接  http://www.imdb.com/title/tt0317219
◎豆瓣评分 7.9/10 from 120886 users
◎豆瓣链接 https://movie.douban.com/subject/1428878/
◎片  长 117分钟
◎导  演 约翰·拉塞特 John Lasseter / 乔·兰福特 Joe Ranft
◎编  剧 约翰·拉塞特 John Lasseter / 乔·兰福特 Joe Ranft / 乔根·克卢宾 Jorgen Klubien / 丹·福格尔曼 Dan Fogelman / 基尔·默里 Kiel Murray / 菲尔·洛林 Phil Lorin / 史蒂夫·波赛尔 Steve Purcell
◎主  演 欧文·威尔逊 Owen Wilson
       保罗·纽曼 Paul Newman
       邦尼·亨特 Bonnie Hunt
       王牌接线员拉里 Larry The Cable Guy
       切奇·马林 Cheech Marin
       托尼·夏尔赫布 Tony Shalhoub
       盖多·克隆尼 Guido Quaroni
       詹妮弗·路易斯 Jenifer Lewis
       保罗·杜利 Paul Dooley
       迈克尔·沃利斯 Michael Wallis
       乔治·卡林 George Carlin
       凯瑟琳·海蒙德 Katherine Helmond
       约翰·拉岑贝格 John Ratzenberger
       乔·兰福特 Joe Ranft
       迈克尔·基顿 Michael Keaton
       伊迪·迈克莱尔 Edie McClurg
       安德鲁·斯坦顿 Andrew Stanton
       小戴尔·恩哈特 Dale Earnhardt Jr.
       迈克尔·舒马赫 Michael Schumacher
       杰·雷诺 Jay Leno
       乔纳斯·里维拉 Jonas Rivera
       卢·罗曼诺 Lou Romano
       艾丽莎·奈特 Elissa Knight
       林赛·柯林斯 Lindsey Collins

◎标  签 动画 | 美国 | Pixar | 迪斯尼 | 笑剧 | 动画片 | 2006 | 美国电影
◎简  介  
  汽车天下中,一年一度的活塞杯再次拉开序幕。红色跑车“闪电”麦坤和“冠军”、“路霸”是冠军最有力的合作者。作为新人,麦坤具有极高的天赋,同时也是一个才高气傲的家伙。经过严重剧烈的匹敌,这三辆车同时冲过尽头线。由于没法判定终极优越者,组委会决议一个月后在加州洛杉矶召开一次只要这三辆车加入的殊死战,只要最初的胜者才能捧得活塞杯。
  信心满满麦坤和同伴拖车麦大叔早早出发。可是长时候的疲惫驾驶,令麦大叔失慎将麦坤丢在半路。麦坤东闯西撞,无意间来到了被众车忘记的油车水镇。因躲避警长的追捕,麦坤损坏了小镇的马路。在法官哈迪逊韩医生和律师保时捷莎莉的判决下,他被迫留在这里修路。短短几天相处,麦坤和小镇的居民渐渐和谐起来,同时他也爱上了美丽的莎莉。只不外,路终有修完的时辰,未完的角逐仍在期待着他……
◎获奖情况  
  第79届奥斯卡金像奖(2007)
  最好动画长片(提名) 约翰·拉塞特
  最好原创歌曲(提名) 兰迪·纽曼
  第64届金球奖(2007)
  电影类 最好动画长片
  第34届动画安妮奖(2007)
  最好动画长片
  最好导演(提名) 约翰·拉塞特
  最好编剧(提名) 丹·福格尔曼
  最好配乐 兰迪·纽曼
  最好艺术指导(提名) William Cone
  最好动画脚色(提名) 卡洛斯·巴埃纳 / Bobby Podesta
  最好动画结果(提名) Keith Daniel Klohn / Erdem Taylan
  1. Video
  2. ID                                       : 1
  3. Format                                   : AVC
  4. Format/Info                              : Advanced Video Codec
  5. Format profile                           : [email protected]
  6. Format settings                          : CABAC / 7 Ref Frames
  7. Format settings, CABAC                   : Yes
  8. Format settings, Reference frames        : 7 frames
  9. Codec ID                                 : V_MPEG4/ISO/AVC
  10. Duration                                 : 1 h 56 min
  11. Bit rate                                 : 25.5 Mb/s
  12. Width                                    : 3 840 pixels
  13. Height                                   : 1 606 pixels
  14. Display aspect ratio                     : 2.40:1
  15. Frame rate mode                          : Constant
  16. Frame rate                               : 23.976 (24000/1001) FPS
  17. Color space                              : YUV
  18. Chroma subsampling                       : 4:2:0
  19. Bit depth                                : 8 bits
  20. Scan type                                : Progressive
  21. Bits/(Pixel*Frame)                       : 0.172
  22. Stream size                              : 20.8 GiB (76%)
  23. Title                                    : Cars.2006.2160p.BluRay.x264.8bit.SDR.TrueHD.7.1.Atmos-SWTYBLZ
  24. Writing library                          : x264 core 157 r2935 545de2f
  25. Encoding settings                        : cabac=1 / ref=7 / deblock=1:1:1 / analyse=0x3:0x113 / me=umh / subme=10 / psy=1 / psy_rd=0.40:0.00 / mixed_ref=1 / me_range=48 / chroma_me=1 / trellis=2 / 8x8dct=1 / cqm=0 / deadzone=21,11 / fast_pskip=1 / chroma_qp_offset=-2 / threads=50 / lookahead_threads=5 / sliced_threads=0 / nr=0 / decimate=0 / interlaced=0 / bluray_compat=0 / constrained_intra=0 / bframes=5 / b_pyramid=2 / b_adapt=2 / b_bias=0 / direct=3 / weightb=1 / open_gop=0 / weightp=2 / keyint=250 / keyint_min=23 / scenecut=40 / intra_refresh=0 / rc_lookahead=50 / rc=crf / mbtree=1 / crf=16.0 / qcomp=0.60 / qpmin=0 / qpmax=69 / qpstep=4 / ip_ratio=1.40 / aq=1:0.60
  26. Default                                  : Yes
  27. Forced                                   : No
  28. Audio #1
  29. ID                                       : 2
  30. Format                                   : MLP FBA 16-ch
  31. Format/Info                              : Meridian Lossless Packing FBA with 16-channel presentation
  32. Commercial name                          : Dolby TrueHD with Dolby Atmos
  33. Codec ID                                 : A_TRUEHD
  34. Duration                                 : 1 h 56 min
  35. Bit rate mode                            : Variable
  36. Bit rate                                 : 7 098 kb/s
  37. Maximum bit rate                         : 9 315 kb/s
  38. Channel(s)                               : 8 channels
  39. Channel layout                           : L R C LFE Ls Rs Lb Rb
  40. Sampling rate                            : 48.0 kHz
  41. Frame rate                               : 1 200.000 FPS (40 SPF)
  42. Compression mode                         : Lossless
  43. Stream size                              : 5.79 GiB (21%)
  44. Title                                    : Cars.2006.2160p.BluRay.x264.8bit.SDR.TrueHD.7.1.Atmos-SWTYBLZ
  45. Language                                 : English
  46. Default                                  : Yes
  47. Forced                                   : No
  48. Number of dynamic objects                : 13
  49. Bed channel count                        : 1 channel
  50. Bed channel configuration                : LFE
  51. Audio #2
  52. ID                                       : 3
  53. Format                                   : AC-3
  54. Format/Info                              : Audio Coding 3
  55. Commercial name                          : Dolby Digital
  56. Codec ID                                 : A_AC3
  57. Duration                                 : 1 h 56 min
  58. Bit rate mode                            : Constant
  59. Bit rate                                 : 640 kb/s
  60. Channel(s)                               : 6 channels
  61. Channel layout                           : L R C LFE Ls Rs
  62. Sampling rate                            : 48.0 kHz
  63. Frame rate                               : 31.250 FPS (1536 SPF)
  64. Bit depth                                : 16 bits
  65. Compression mode                         : Lossy
  66. Stream size                              : 535 MiB (2%)
  67. Title                                    : Cars.2006.2160p.BluRay.x264.8bit.SDR.TrueHD.7.1.Atmos-SWTYBLZ
  68. Language                                 : English
  69. Service kind                             : Complete Main
  70. Default                                  : No
  71. Forced                                   : No
  72. Text #1
  73. ID                                       : 4
  74. Format                                   : UTF-8
  75. Codec ID                                 : S_TEXT/UTF8
  76. Codec ID/Info                            : UTF-8 Plain Text
  77. Duration                                 : 1 h 55 min
  78. Bit rate                                 : 67 b/s
  79. Count of elements                        : 1543
  80. Stream size                              : 57.3 KiB (0%)
  81. Title                                    : English-SRT
  82. Language                                 : English
  83. Default                                  : Yes
  84. Forced                                   : No
  85. Text #2
  86. ID                                       : 5
  87. Format                                   : PGS
  88. Muxing mode                              : zlib
  89. Codec ID                                 : S_HDMV/PGS
  90. Codec ID/Info                            : Picture based subtitle format used on BDs/HD-DVDs
  91. Duration                                 : 1 h 55 min
  92. Bit rate                                 : 48.3 kb/s
  93. Count of elements                        : 3574
  94. Stream size                              : 39.8 MiB (0%)
  95. Title                                    : English-PGS
  96. Language                                 : English
  97. Default                                  : No
  98. Forced                                   : No
  99. Text #3
  100. ID                                       : 6
  101. Format                                   : PGS
  102. Muxing mode                              : zlib
  103. Codec ID                                 : S_HDMV/PGS
  104. Codec ID/Info                            : Picture based subtitle format used on BDs/HD-DVDs
  105. Duration                                 : 1 h 55 min
  106. Bit rate                                 : 35.3 kb/s
  107. Count of elements                        : 2798
  108. Stream size                              : 29.0 MiB (0%)
  109. Title                                    : Spanish-PGS
  110. Language                                 : Spanish
  111. Default                                  : No
  112. Forced                                   : No
  113. Menu
  114. 00:00:00.000                             : en:Chapter 01
  115. 00:09:38.244                             : en:Chapter 02
  116. 00:13:48.828                             : en:Chapter 03
  117. 00:16:19.853                             : en:Chapter 04
  118. 00:19:53.483                             : en:Chapter 05
  119. 00:24:33.597                             : en:Chapter 06
  120. 00:27:27.187                             : en:Chapter 07
  121. 00:28:12.774                             : en:Chapter 08
  122. 00:29:42.155                             : en:Chapter 09
  123. 00:33:58.077                             : en:Chapter 10
  124. 00:35:53.901                             : en:Chapter 11
  125. 00:41:51.175                             : en:Chapter 12
  126. 00:45:56.587                             : en:Chapter 13
  127. 00:48:41.043                             : en:Chapter 14
  128. 00:50:39.494                             : en:Chapter 15
  129. 00:54:40.819                             : en:Chapter 16
  130. 00:57:48.214                             : en:Chapter 17
  131. 01:01:29.435                             : en:Chapter 18
  132. 01:02:59.108                             : en:Chapter 19
  133. 01:05:43.272                             : en:Chapter 20
  134. 01:07:43.309                             : en:Chapter 21
  135. 01:09:49.810                             : en:Chapter 22
  136. 01:11:27.741                             : en:Chapter 23
  137. 01:15:01.747                             : en:Chapter 24
  138. 01:15:58.303                             : en:Chapter 25
  139. 01:20:14.643                             : en:Chapter 26
  140. 01:22:22.187                             : en:Chapter 27
  141. 01:24:59.219                             : en:Chapter 28
  142. 01:27:32.247                             : en:Chapter 29
  143. 01:32:37.510                             : en:Chapter 30
  144. 01:46:18.121                             : en:Chapter 31
  145. 01:48:31.963                             : en:Chapter 32
复制代码










                                       
                                       

                                       
                                       
                                       




回复

使用道具 举报

蓝光币
0
发表于 2021-9-7 17:35:09 | 显示全部楼层
楼主发贴辛苦了,谢谢楼主分享!我觉得蓝光电影网是注册对了!
回复

使用道具 举报

蓝光币
0
发表于 2021-9-7 17:41:17 | 显示全部楼层

楼主太厉害了!楼主,电影应该很好看我觉得蓝光电影网真是个好地方!
回复

使用道具 举报

懒得打字嘛,点击右侧快捷回复 【右侧内容,后台自定义】
您需要登录后才可以回帖 登录 | 立即加入

本版积分规则

Copyright © 2024 Comsenz Inc. Powered by 蓝光电影网

本站内容由用户自主分享和转载自互联网,转载目的在于传递更多信息,并不代表本网赞同其观点和对其真实性负责。

如有侵权、违反国家法律政策行为,请联系我们,我们会第一时间及时清除和处理!

举报反馈邮箱:4k1080.com@gmail.com

快速回复 返回顶部 返回列表