找回密码

查看: 898|回复: 0

[2160p] 破茧威龙 Lock.Up.1989.2160p.BluRay.x264.8bit.SDR.DTS-HD.MA.5.1-SWTYBLZ 44.82GB

[复制链接]
蓝光币
1848
发表于 2019-9-10 16:55:39 | 显示全部楼层 |阅读模式


◎译  名 破茧威龙 / Condena brutal / 黑狱灾星
◎片  名 Lock Up
◎年  代 1989
◎产  地 美国
◎类  别 行动 / 惊悚 / 犯罪
◎语  言 英语
◎上映日期 1989-08-04(美国)
◎IMDb评分  6.4/10 from 35447 users
◎IMDb链接  http://www.imdb.com/title/tt0097770
◎豆瓣评分 7.0/10 from 1142 users
◎豆瓣链接 https://movie.douban.com/subject/1299316/
◎片  长 109分钟
◎导  演 约翰·弗林 John Flynn
◎编  剧 Richard Smith / 杰布·斯图尔特 Jeb Stuart / 亨利·罗森鲍姆 Henry Rosenbaum
◎主  演 西尔维斯特·史泰龙 Sylvester Stallone
       唐纳德·萨瑟兰 Donald Sutherland
       约翰·阿莫斯 John Amos
       索尼·兰哈姆 Sonny Landham
       汤姆·塞兹摩尔 Tom Sizemore
       Frank McRae

◎标  签 史泰龙 | 行动 | 美国 | 牢狱 | 犯罪 | 1989 | 美国电影 | 剧情
◎简  介  
  榜样监犯弗兰克?莱昂尼(西尔维斯特?史泰龙 Sylvester Stallone 饰)的刑期还剩半年,他定期可之外出与女友碰头,这个昔日的修车技师看中了一处仓库作为往后的修理部,普通的生活在期待着他。但是某天他忽然被转移到情况卑劣的盖特威牢狱,全因五年前他为了见师父兼养父的最初一面,从牢狱长庄古(唐纳德?萨瑟兰 Donald Sutherland 饰)的治下逃走。弗兰克逃狱成功成为豪杰,而庄古却蒙受惩罚怀恨在心。现在,庄古将弗兰克重新把握,寻机报仇。
  弗兰克遭到了庄古及手下的卑劣看待,但始终哑忍,而且渐渐在牢狱中结交了几个朋友,包括始终想逃狱的囚房万事通、消瘦年轻的“杀手”和狱中修理厂的负责人,死板的生活有了好转,可是庄古始终冷静注视着他,预备给他更大的疾苦……
  1. Video
  2. ID                                       : 1
  3. Format                                   : AVC
  4. Format/Info                              : Advanced Video Codec
  5. Format profile                           : [email protected]
  6. Format settings                          : CABAC / 5 Ref Frames
  7. Format settings, CABAC                   : Yes
  8. Format settings, Reference frames        : 5 frames
  9. Codec ID                                 : V_MPEG4/ISO/AVC
  10. Duration                                 : 1 h 48 min
  11. Bit rate                                 : 54.0 Mb/s
  12. Width                                    : 3 840 pixels
  13. Height                                   : 2 076 pixels
  14. Display aspect ratio                     : 1.85:1
  15. Frame rate mode                          : Constant
  16. Frame rate                               : 24.000 FPS
  17. Color space                              : YUV
  18. Chroma subsampling                       : 4:2:0
  19. Bit depth                                : 8 bits
  20. Scan type                                : Progressive
  21. Bits/(Pixel*Frame)                       : 0.282
  22. Stream size                              : 41.0 GiB (92%)
  23. Title                                    : Lock.Up.1989.2160p.BluRay.x264.8bit.SDR.DTS-HD.MA.5.1-SWTYBLZ
  24. Writing library                          : x264 core 157 r2935 545de2f
  25. Encoding settings                        : cabac=1 / ref=5 / deblock=1:-1:-1 / analyse=0x3:0x113 / me=umh / subme=10 / psy=1 / psy_rd=1.00:0.15 / mixed_ref=1 / me_range=48 / chroma_me=1 / trellis=2 / 8x8dct=1 / cqm=0 / deadzone=21,11 / fast_pskip=1 / chroma_qp_offset=-3 / threads=65 / lookahead_threads=5 / sliced_threads=0 / nr=0 / decimate=0 / interlaced=0 / bluray_compat=0 / constrained_intra=0 / bframes=3 / b_pyramid=2 / b_adapt=2 / b_bias=0 / direct=3 / weightb=1 / open_gop=0 / weightp=2 / keyint=250 / keyint_min=24 / scenecut=40 / intra_refresh=0 / rc_lookahead=50 / rc=crf / mbtree=1 / crf=24.0 / qcomp=0.60 / qpmin=0 / qpmax=69 / qpstep=4 / ip_ratio=1.40 / aq=1:1.00
  26. Language                                 : English
  27. Default                                  : Yes
  28. Forced                                   : No
  29. Audio #1
  30. ID                                       : 2
  31. Format                                   : DTS XLL
  32. Format/Info                              : Digital Theater Systems
  33. Commercial name                          : DTS-HD Master Audio
  34. Codec ID                                 : A_DTS
  35. Duration                                 : 1 h 48 min
  36. Bit rate mode                            : Variable
  37. Bit rate                                 : 3 982 kb/s
  38. Channel(s)                               : 6 channels
  39. Channel layout                           : C L R Ls Rs LFE
  40. Sampling rate                            : 48.0 kHz
  41. Frame rate                               : 93.750 FPS (512 SPF)
  42. Bit depth                                : 24 bits
  43. Compression mode                         : Lossless
  44. Stream size                              : 3.02 GiB (7%)
  45. Title                                    : Lock.Up.1989.2160p.BluRay.x264.8bit.SDR.DTS-HD.MA.5.1-SWTYBLZ
  46. Language                                 : English
  47. Default                                  : Yes
  48. Forced                                   : No
  49. Audio #2
  50. ID                                       : 3
  51. Format                                   : AC-3
  52. Format/Info                              : Audio Coding 3
  53. Commercial name                          : Dolby Digital
  54. Codec ID                                 : A_AC3
  55. Duration                                 : 1 h 48 min
  56. Bit rate mode                            : Constant
  57. Bit rate                                 : 640 kb/s
  58. Channel(s)                               : 6 channels
  59. Channel layout                           : L R C LFE Ls Rs
  60. Sampling rate                            : 48.0 kHz
  61. Frame rate                               : 31.250 FPS (1536 SPF)
  62. Bit depth                                : 16 bits
  63. Compression mode                         : Lossy
  64. Stream size                              : 498 MiB (1%)
  65. Title                                    : Lock.Up.1989.2160p.BluRay.x264.8bit.SDR.DTS-HD.MA.5.1-SWTYBLZ
  66. Language                                 : English
  67. Service kind                             : Complete Main
  68. Default                                  : No
  69. Forced                                   : No
  70. Text #1
  71. ID                                       : 4
  72. Format                                   : UTF-8
  73. Codec ID                                 : S_TEXT/UTF8
  74. Codec ID/Info                            : UTF-8 Plain Text
  75. Duration                                 : 1 h 42 min
  76. Bit rate                                 : 41 b/s
  77. Count of elements                        : 1118
  78. Stream size                              : 31.0 KiB (0%)
  79. Title                                    : English-SRT
  80. Language                                 : English
  81. Default                                  : Yes
  82. Forced                                   : No
  83. Text #2
  84. ID                                       : 5
  85. Format                                   : PGS
  86. Muxing mode                              : zlib
  87. Codec ID                                 : S_HDMV/PGS
  88. Codec ID/Info                            : Picture based subtitle format used on BDs/HD-DVDs
  89. Duration                                 : 1 h 42 min
  90. Bit rate                                 : 22.2 kb/s
  91. Count of elements                        : 2254
  92. Stream size                              : 16.2 MiB (0%)
  93. Title                                    : English-PGS
  94. Language                                 : English
  95. Default                                  : No
  96. Forced                                   : No
  97. Text #3
  98. ID                                       : 6
  99. Format                                   : PGS
  100. Muxing mode                              : zlib
  101. Codec ID                                 : S_HDMV/PGS
  102. Codec ID/Info                            : Picture based subtitle format used on BDs/HD-DVDs
  103. Duration                                 : 1 h 46 min
  104. Bit rate                                 : 24.4 kb/s
  105. Count of elements                        : 2160
  106. Stream size                              : 18.6 MiB (0%)
  107. Title                                    : Spanish-PGS
  108. Language                                 : Spanish
  109. Default                                  : No
  110. Forced                                   : No
  111. Menu
  112. 00:00:00.000                             : en:Chapter 01
  113. 00:08:11.750                             : en:Chapter 02
  114. 00:18:44.500                             : en:Chapter 03
  115. 00:26:06.791                             : en:Chapter 04
  116. 00:32:52.791                             : en:Chapter 05
  117. 00:40:58.291                             : en:Chapter 06
  118. 00:54:47.791                             : en:Chapter 07
  119. 01:06:00.791                             : en:Chapter 08
  120. 01:15:18.958                             : en:Chapter 09
  121. 01:23:07.708                             : en:Chapter 10
  122. 01:36:07.708                             : en:Chapter 11
  123. 01:44:56.916                             : en:Chapter 12
复制代码










                                       
                                       

                                       
                                       
                                       




回复

使用道具 举报

懒得打字嘛,点击右侧快捷回复 【右侧内容,后台自定义】
您需要登录后才可以回帖 登录 | 立即加入

本版积分规则

Copyright © 2024 Comsenz Inc. Powered by 蓝光电影网

本站内容由用户自主分享和转载自互联网,转载目的在于传递更多信息,并不代表本网赞同其观点和对其真实性负责。

如有侵权、违反国家法律政策行为,请联系我们,我们会第一时间及时清除和处理!

举报反馈邮箱:4k1080.com@gmail.com

快速回复 返回顶部 返回列表