找回密码

查看: 947|回复: 0

[2160p] 安娜 Anna.2019.INTERNAL.2160p.WEB.X265-DEFLATE 12.88GB

[复制链接]
蓝光币
1840
发表于 2019-9-10 16:47:58 | 显示全部楼层 |阅读模式


◎译  名 安娜
◎片  名 Anna
◎年  代 2019
◎产  地 法国 / 美国
◎类  别 行动 / 惊悚
◎语  言 英语 / 俄语
◎上映日期 2019-06-21(美国) / 2019-07-10(法国)
◎IMDb评分  6.6/10 from 8495 users
◎IMDb链接  http://www.imdb.com/title/tt7456310
◎豆瓣评分 7.6/10 from 979 users
◎豆瓣链接 https://movie.douban.com/subject/27166976/
◎片  长 119分钟
◎导  演 吕克·贝松 Luc Besson
◎编  剧 吕克·贝松 Luc Besson
◎主  演 萨莎·露丝 Sasha Luss
       海伦·米伦 Helen Mirren
       卢克·伊万斯 Luke Evans
       基里安·墨菲 Cillian Murphy
       亚历山大·佩特罗夫 Alexander Petrov
       艾力克·高敦 Eric Godon
       伊凡·弗拉内克 Ivan Franek
       Jean-Baptiste Puech
       阿德里安·坎恩 Adrian Can
       安德鲁·霍华德 Andrew Howard
       保利妮·霍劳 Pauline Hoarau
       雷吉尔·库迪乌 Réginal Kudiwu
       耶斯·利奥丹 Jess Liaudin
       鲁伯特·韦恩-詹姆斯 Rupert Wynne-James
       埃文特·斯特朗 Avant Strangel
       詹·奥利弗·施罗德 Jan Oliver Schroeder
       克里斯多夫·泰克 Christophe Tek
       詹姆斯·乔因特 James Joint
       谢尔盖·巴切乌尔斯基 Sergey Bachurskiy
       扎克·安德里亚纳索洛 Zac Andrianasolo
       莱拉·阿波瓦 Lera Abova
       Nikita Pavlenko
       Anna Krippa
       Aleksey Maslodudov
       Alison Wheeler
       Travis Kerschen

◎标  签 吕克·贝松 | 行动 | 法国 | 2019 | 悬疑 | 电影 | 惊悚 | 限制级
◎简  介  
  故事聚焦奥秘女杀手安娜的长大及履行各类暗杀使命的履历,在美丽的表面下,安娜具有聪明绝顶的脑筋和强大的战役技能,是天下上最可骇的刺客之一,她游走于黑白两道,只要被锁定的方针,从不失手。
  1. Video
  2. ID                                       : 1
  3. Format                                   : HEVC
  4. Format/Info                              : High Efficiency Video Coding
  5. Format profile                           : [email protected]@Main
  6. Codec ID                                 : V_MPEGH/ISO/HEVC
  7. Duration                                 : 1 h 58 min
  8. Bit rate                                 : 14.6 Mb/s
  9. Width                                    : 3 840 pixels
  10. Height                                   : 1 608 pixels
  11. Original height                          : 2 160 pixels
  12. Display aspect ratio                     : 16:9
  13. Frame rate mode                          : Constant
  14. Frame rate                               : 23.976 (23976/1000) FPS
  15. Color space                              : YUV
  16. Chroma subsampling                       : 4:2:0
  17. Bit depth                                : 8 bits
  18. Bits/(Pixel*Frame)                       : 0.099
  19. Stream size                              : 12.1 GiB (95%)
  20. Writing library                          : x265 3.0:[Linux][GCC 4.8.5][64 bit] 8bit
  21. Encoding settings                        : cpuid=1111039 / frame-threads=6 / wpp / no-pmode / no-pme / no-psnr / no-ssim / log-level=2 / input-csp=1 / input-res=3840x2160 / interlace=0 / total-frames=0 / level-idc=0 / high-tier=1 / uhd-bd=0 / ref=3 / no-allow-non-conformance / no-repeat-headers / annexb / no-aud / no-hrd / info / hash=0 / no-temporal-layers / no-open-gop / min-keyint=4 / keyint=48 / gop-lookahead=0 / bframes=4 / b-adapt=2 / b-pyramid / bframe-bias=0 / rc-lookahead=80 / lookahead-slices=4 / scenecut=0 / radl=0 / no-splice / no-intra-refresh / ctu=64 / min-cu-size=8 / rect / no-amp / max-tu-size=32 / tu-inter-depth=1 / tu-intra-depth=1 / limit-tu=0 / rdoq-level=2 / dynamic-rd=0.00 / no-ssim-rd / signhide / no-tskip / nr-intra=0 / nr-inter=0 / no-constrained-intra / strong-intra-smoothing / max-merge=3 / limit-refs=3 / limit-modes / me=2 / subme=3 / merange=64 / temporal-mvp / weightp / no-weightb / no-analyze-src-pics / deblock=0:0 / no-sao / no-sao-non-deblock / rd=4 / no-early-skip / no-rskip / no-fast-intra / no-tskip-fast / no-cu-lossless / no-b-intra / no-splitrd-skip / rdpenalty=0 / psy-rd=4.00 / psy-rdoq=10.00 / no-rd-refine / no-lossless / cbqpoffs=0 / crqpoffs=0 / rc=abr / bitrate=15000 / qcomp=0.60 / qpstep=1 / stats-write=0 / stats-read=0 / vbv-maxrate=22500 / vbv-bufsize=22500 / vbv-init=0.9 / ipratio=1.10 / pbratio=1.00 / aq-mode=0 / aq-strength=0.00 / no-cutree / zone-count=0 / no-strict-cbr / qg-size=32 / rc-grain / qpmax=69 / qpmin=0 / const-vbv / sar=1 / overscan=0 / videoformat=5 / range=0 / colorprim=1 / transfer=1 / colormatrix=1 / chromaloc=0 / display-window=0 / max-cll=0,0 / min-luma=0 / max-luma=255 / log2-max-poc-lsb=8 / vui-timing-info / vui-hrd-info / slices=1 / no-opt-qp-pps / no-opt-ref-list-length-pps / no-multi-pass-opt-rps / scenecut-bias=0.05 / no-opt-cu-delta-qp / no-aq-motion / no-hdr / no-hdr-opt / no-dhdr10-opt / no-idr-recovery-sei / analysis-reuse-level=5 / scale-factor=0 / refine-intra=0 / refine-inter=0 / refine-mv=0 / refine-ctu-distortion=0 / no-limit-sao / ctu-info=0 / no-lowpass-dct / refine-analysis-type=0 / copy-pic=1 / max-ausize-factor=1.0 / no-dynamic-refine / no-single-sei / no-hevc-aq / qp-adaptation-range=1.00
  22. Default                                  : Yes
  23. Forced                                   : No
  24. Color range                              : Limited
  25. Color primaries                          : BT.709
  26. Transfer characteristics                 : BT.709
  27. Matrix coefficients                      : BT.709
  28. Audio
  29. ID                                       : 2
  30. Format                                   : E-AC-3 JOC
  31. Format/Info                              : Enhanced AC-3 with Joint Object Coding
  32. Commercial name                          : Dolby Digital Plus with Dolby Atmos
  33. Codec ID                                 : A_EAC3
  34. Duration                                 : 1 h 58 min
  35. Bit rate mode                            : Constant
  36. Bit rate                                 : 448 kb/s
  37. Channel(s)                               : 6 channels
  38. Channel layout                           : L R C LFE Ls Rs
  39. Sampling rate                            : 48.0 kHz
  40. Frame rate                               : 31.250 FPS (1536 SPF)
  41. Compression mode                         : Lossy
  42. Stream size                              : 381 MiB (3%)
  43. Language                                 : English
  44. Service kind                             : Complete Main
  45. Default                                  : Yes
  46. Forced                                   : No
  47. Complexity index                         : 16
  48. Number of dynamic objects                : 15
  49. Bed channel count                        : 1 channel
  50. Bed channel configuration                : LFE
  51. Text #1
  52. ID                                       : 3
  53. Format                                   : UTF-8
  54. Codec ID                                 : S_TEXT/UTF8
  55. Codec ID/Info                            : UTF-8 Plain Text
  56. Title                                    : English
  57. Language                                 : English
  58. Default                                  : No
  59. Forced                                   : No
  60. Text #2
  61. ID                                       : 4
  62. Format                                   : UTF-8
  63. Codec ID                                 : S_TEXT/UTF8
  64. Codec ID/Info                            : UTF-8 Plain Text
  65. Title                                    : English (SDH)
  66. Language                                 : English
  67. Default                                  : No
  68. Forced                                   : No
复制代码






                                       
                                       

                                       
                                       
                                       




回复

使用道具 举报

懒得打字嘛,点击右侧快捷回复 【右侧内容,后台自定义】
您需要登录后才可以回帖 登录 | 立即加入

本版积分规则

Copyright © 2024 Comsenz Inc. Powered by 蓝光电影网

本站内容由用户自主分享和转载自互联网,转载目的在于传递更多信息,并不代表本网赞同其观点和对其真实性负责。

如有侵权、违反国家法律政策行为,请联系我们,我们会第一时间及时清除和处理!

举报反馈邮箱:4k1080.com@gmail.com

快速回复 返回顶部 返回列表