找回密码

查看: 1430|回复: 1

[UHD.HEVC] 嗜血破晓/2019猎血都市 Daybreakers.2009.2160p.BluRay.REMUX.HEVC.DTS-HD.MA.TrueHD.7.1.Atmos-FGT 58.32GB

[复制链接]
蓝光币
1840
发表于 2019-9-6 20:01:13 | 显示全部楼层 |阅读模式


◎译  名 嗜血破晓 / 2019猎血都会(港) / 破晓者 / 血世纪(台) / 拂晓时分
◎片  名 Daybreakers
◎年  代 2009
◎产  地 美国 / 澳大利亚
◎类  别 剧情 / 行动 / 科幻 / 可骇 / 犯罪
◎语  言 英语
◎上映日期 2010-01-08(美国)
◎IMDb评分  6.4/10 from 117479 users
◎IMDb链接  http://www.imdb.com/title/tt0433362
◎豆瓣评分 6.9/10 from 29879 users
◎豆瓣链接 https://movie.douban.com/subject/1972732/
◎片  长 98分钟
◎导  演 Michael Spierig / Peter Spierig
◎编  剧 Michael Spierig / Peter Spierig
◎主  演 伊桑·霍克 Ethan Hawke
       威廉·达福 Willem Dafoe
       伊莎贝尔·卢卡斯 Isabel Lucas
       山姆·尼尔 Sam Neill
       Harriet Minto-Day
       克劳蒂娅·卡万 Claudia Karvan
       文斯·科洛斯莫 Vince Colosimo
       迈克尔·多曼 Michael Dorman

◎标  签 吸血鬼 | 科幻 | 美国 | 惊悚 | 可骇 | 美国电影 | EthanHawke | 2010
◎简  介  
  已经过人类主宰的社会现在酿成了吸血鬼的全国,而仅存的人类被圈养起来成为制造新颖血液的机械。人类的数目越来越少,吸血鬼必须研讨出血液的替换品,否则将面临加倍可骇的变异。爱德华·道尔顿(伊桑·霍克 饰)是专门研讨新型替换品的首席血液专家,他的老板查尔斯·布罗姆利是一位野心家,他很是满足当前吸血鬼天下的现状并诡计经过把持新的替换品获得巨额利润。一次意外爱德华碰到了流亡中的人类奥德丽·班尼特(克劳蒂娅·卡万 饰),并帮助她摆脱追捕,不意事后奥德丽居然找上门来,而且带来了在一次意外中由吸血鬼奇迹般酿成人类的艾维斯,仅存的人类需要一个可以信赖的吸血鬼的帮助……
  斯派瑞格兄弟(Peter Spierig & Michael Spierig)在此片中将以往的吸血鬼范例片停止革新,融入科幻的元素打造出全新的故事空气。
  1. Video #1
  2. ID                                       : 1
  3. Format                                   : HEVC
  4. Format/Info                              : High Efficiency Video Coding
  5. Format profile                           : Main [email protected]@High
  6. HDR format                               : SMPTE ST 2086, HDR10 compatible
  7. Codec ID                                 : V_MPEGH/ISO/HEVC
  8. Duration                                 : 1 h 37 min
  9. Bit rate                                 : 67.5 Mb/s
  10. Width                                    : 3 840 pixels
  11. Height                                   : 2 160 pixels
  12. Display aspect ratio                     : 16:9
  13. Frame rate mode                          : Constant
  14. Frame rate                               : 23.976 (24000/1001) FPS
  15. Color space                              : YUV
  16. Chroma subsampling                       : 4:2:0 (Type 2)
  17. Bit depth                                : 10 bits
  18. Bits/(Pixel*Frame)                       : 0.340
  19. Stream size                              : 46.1 GiB (79%)
  20. Title                                    : Daybreakers.2009.2160p.BluRay.REMUX.HEVC.DTS-HD.MA.TrueHD.7.1.Atmos-FGT
  21. Language                                 : English
  22. Default                                  : Yes
  23. Forced                                   : No
  24. Color range                              : Limited
  25. Color primaries                          : BT.2020
  26. Transfer characteristics                 : PQ
  27. Matrix coefficients                      : BT.2020 non-constant
  28. Mastering display color primaries        : Display P3
  29. Mastering display luminance              : min: 0.0010 cd/m2, max: 1000 cd/m2
  30. Maximum Content Light Level              : 1000 cd/m2
  31. Maximum Frame-Average Light Level        : 384 cd/m2
  32. Video #2
  33. ID                                       : 2
  34. Format                                   : HEVC
  35. Format/Info                              : High Efficiency Video Coding
  36. Format profile                           : Main [email protected]@High
  37. HDR format                               : SMPTE ST 2086, HDR10 compatible
  38. Codec ID                                 : V_MPEGH/ISO/HEVC
  39. Duration                                 : 1 h 37 min
  40. Bit rate                                 : 8 093 kb/s
  41. Width                                    : 1 920 pixels
  42. Height                                   : 1 080 pixels
  43. Display aspect ratio                     : 16:9
  44. Frame rate mode                          : Constant
  45. Frame rate                               : 23.976 (24000/1001) FPS
  46. Color space                              : YUV
  47. Chroma subsampling                       : 4:2:0 (Type 2)
  48. Bit depth                                : 10 bits
  49. Bits/(Pixel*Frame)                       : 0.163
  50. Stream size                              : 5.53 GiB (9%)
  51. Title                                    : Daybreakers.2009.2160p.BluRay.REMUX.HEVC.DTS-HD.MA.TrueHD.7.1.Atmos-FGT
  52. Language                                 : English
  53. Default                                  : No
  54. Forced                                   : No
  55. Color range                              : Limited
  56. Color primaries                          : BT.2020
  57. Transfer characteristics                 : PQ
  58. Matrix coefficients                      : BT.2020 non-constant
  59. Mastering display color primaries        : Display P3
  60. Mastering display luminance              : min: 0.0010 cd/m2, max: 1000 cd/m2
  61. Audio #1
  62. ID                                       : 3
  63. Format                                   : MLP FBA 16-ch
  64. Format/Info                              : Meridian Lossless Packing FBA with 16-channel presentation
  65. Commercial name                          : Dolby TrueHD with Dolby Atmos
  66. Codec ID                                 : A_TRUEHD
  67. Duration                                 : 1 h 37 min
  68. Bit rate mode                            : Variable
  69. Bit rate                                 : 4 556 kb/s
  70. Maximum bit rate                         : 8 994 kb/s
  71. Channel(s)                               : 8 channels
  72. Channel layout                           : L R C LFE Ls Rs Lb Rb
  73. Sampling rate                            : 48.0 kHz
  74. Frame rate                               : 1 200.000 FPS (40 SPF)
  75. Compression mode                         : Lossless
  76. Stream size                              : 3.11 GiB (5%)
  77. Title                                    : Daybreakers.2009.2160p.BluRay.REMUX.HEVC.DTS-HD.MA.TrueHD.7.1.Atmos-FGT
  78. Language                                 : English
  79. Default                                  : Yes
  80. Forced                                   : No
  81. Number of dynamic objects                : 11
  82. Bed channel count                        : 1 channel
  83. Bed channel configuration                : LFE
  84. Audio #2
  85. ID                                       : 4
  86. Format                                   : DTS XLL
  87. Format/Info                              : Digital Theater Systems
  88. Commercial name                          : DTS-HD Master Audio
  89. Codec ID                                 : A_DTS
  90. Duration                                 : 1 h 37 min
  91. Bit rate mode                            : Variable
  92. Bit rate                                 : 4 259 kb/s
  93. Channel(s)                               : 8 channels
  94. Channel layout                           : C L R LFE Lb Rb Lss Rss
  95. Sampling rate                            : 48.0 kHz
  96. Frame rate                               : 93.750 FPS (512 SPF)
  97. Bit depth                                : 24 bits
  98. Compression mode                         : Lossless
  99. Stream size                              : 2.91 GiB (5%)
  100. Title                                    : Daybreakers.2009.2160p.BluRay.REMUX.HEVC.DTS-HD.MA.TrueHD.7.1.Atmos-FGT
  101. Language                                 : English
  102. Default                                  : No
  103. Forced                                   : No
  104. Audio #3
  105. ID                                       : 5
  106. Format                                   : AC-3
  107. Format/Info                              : Audio Coding 3
  108. Commercial name                          : Dolby Digital
  109. Codec ID                                 : A_AC3
  110. Duration                                 : 1 h 37 min
  111. Bit rate mode                            : Constant
  112. Bit rate                                 : 640 kb/s
  113. Channel(s)                               : 6 channels
  114. Channel layout                           : L R C LFE Ls Rs
  115. Sampling rate                            : 48.0 kHz
  116. Frame rate                               : 31.250 FPS (1536 SPF)
  117. Bit depth                                : 16 bits
  118. Compression mode                         : Lossy
  119. Stream size                              : 448 MiB (1%)
  120. Title                                    : Daybreakers.2009.2160p.BluRay.REMUX.HEVC.DTS-HD.MA.TrueHD.7.1.Atmos-FGT
  121. Language                                 : English
  122. Service kind                             : Complete Main
  123. Default                                  : No
  124. Forced                                   : No
  125. Audio #4
  126. ID                                       : 6
  127. Format                                   : AC-3
  128. Format/Info                              : Audio Coding 3
  129. Commercial name                          : Dolby Digital
  130. Codec ID                                 : A_AC3
  131. Duration                                 : 1 h 37 min
  132. Bit rate mode                            : Constant
  133. Bit rate                                 : 192 kb/s
  134. Channel(s)                               : 2 channels
  135. Channel layout                           : L R
  136. Sampling rate                            : 48.0 kHz
  137. Frame rate                               : 31.250 FPS (1536 SPF)
  138. Bit depth                                : 16 bits
  139. Compression mode                         : Lossy
  140. Stream size                              : 134 MiB (0%)
  141. Title                                    : Daybreakers.2009.2160p.BluRay.REMUX.HEVC.DTS-HD.MA.TrueHD.7.1.Atmos-FGT
  142. Language                                 : English
  143. Service kind                             : Complete Main
  144. Default                                  : No
  145. Forced                                   : No
  146. Text #1
  147. ID                                       : 7
  148. Format                                   : UTF-8
  149. Codec ID                                 : S_TEXT/UTF8
  150. Codec ID/Info                            : UTF-8 Plain Text
  151. Duration                                 : 1 h 27 min
  152. Bit rate                                 : 33 b/s
  153. Count of elements                        : 693
  154. Stream size                              : 21.7 KiB (0%)
  155. Title                                    : English-SRT
  156. Language                                 : English
  157. Default                                  : Yes
  158. Forced                                   : No
  159. Text #2
  160. ID                                       : 8
  161. Format                                   : PGS
  162. Muxing mode                              : zlib
  163. Codec ID                                 : S_HDMV/PGS
  164. Codec ID/Info                            : Picture based subtitle format used on BDs/HD-DVDs
  165. Duration                                 : 1 h 27 min
  166. Bit rate                                 : 22.2 kb/s
  167. Count of elements                        : 1388
  168. Stream size                              : 13.9 MiB (0%)
  169. Title                                    : English-PGS
  170. Language                                 : English
  171. Default                                  : No
  172. Forced                                   : No
  173. Text #3
  174. ID                                       : 9
  175. Format                                   : PGS
  176. Muxing mode                              : zlib
  177. Codec ID                                 : S_HDMV/PGS
  178. Codec ID/Info                            : Picture based subtitle format used on BDs/HD-DVDs
  179. Duration                                 : 1 h 29 min
  180. Bit rate                                 : 24.4 kb/s
  181. Count of elements                        : 1570
  182. Stream size                              : 15.6 MiB (0%)
  183. Title                                    : English-SDH-PGS
  184. Language                                 : English
  185. Default                                  : No
  186. Forced                                   : No
  187. Text #4
  188. ID                                       : 10
  189. Format                                   : PGS
  190. Muxing mode                              : zlib
  191. Codec ID                                 : S_HDMV/PGS
  192. Codec ID/Info                            : Picture based subtitle format used on BDs/HD-DVDs
  193. Duration                                 : 1 h 30 min
  194. Bit rate                                 : 22.7 kb/s
  195. Count of elements                        : 1489
  196. Stream size                              : 14.6 MiB (0%)
  197. Title                                    : Spanish-PGS
  198. Language                                 : Spanish
  199. Default                                  : No
  200. Forced                                   : No
  201. Menu
  202. 00:00:00.000                             : en:Chapter 01
  203. 00:04:38.820                             : en:Chapter 02
  204. 00:08:23.377                             : en:Chapter 03
  205. 00:18:32.611                             : en:Chapter 04
  206. 00:24:05.902                             : en:Chapter 05
  207. 00:33:58.995                             : en:Chapter 06
  208. 00:37:38.506                             : en:Chapter 07
  209. 00:40:41.522                             : en:Chapter 08
  210. 00:46:52.851                             : en:Chapter 09
  211. 00:51:30.128                             : en:Chapter 10
  212. 00:57:13.721                             : en:Chapter 11
  213. 01:00:20.241                             : en:Chapter 12
  214. 01:05:40.811                             : en:Chapter 13
  215. 01:10:43.739                             : en:Chapter 14
  216. 01:14:22.541                             : en:Chapter 15
  217. 01:23:52.986                             : en:Chapter 16
复制代码






                                       
                                       

                                       
                                       
                                       




回复

使用道具 举报

蓝光币
356
发表于 2023-7-2 10:26:25 | 显示全部楼层
楼主发贴辛苦了,谢谢楼主分享!我觉得蓝光电影网是注册对了!
回复

使用道具 举报

懒得打字嘛,点击右侧快捷回复 【右侧内容,后台自定义】
您需要登录后才可以回帖 登录 | 立即加入

本版积分规则

Copyright © 2024 Comsenz Inc. Powered by 蓝光电影网

本站内容由用户自主分享和转载自互联网,转载目的在于传递更多信息,并不代表本网赞同其观点和对其真实性负责。

如有侵权、违反国家法律政策行为,请联系我们,我们会第一时间及时清除和处理!

举报反馈邮箱:4k1080.com@gmail.com

快速回复 返回顶部 返回列表