找回密码

查看: 1137|回复: 0

[剧情] 童年时光 A.Year.in.My.Life.2006.FRENCH.1080p.AMZN.WEBRip.DDP5.1.x264-ETHiCS 9.42GB

[复制链接]
蓝光币
1840
发表于 2021-8-20 00:55:31 | 显示全部楼层 |阅读模式


◎译  名 童年时光
◎片  名 le temps des porte-plumes
◎年  代 2006
◎产  地 法国
◎类  别 剧情
◎语  言 法语
◎上映日期 2006-03-08
◎IMDb评分  6.1/10 from 159 users
◎IMDb链接  https://www.imdb.com/title/tt0391488/
◎豆瓣评分 /10 from 0 users
◎豆瓣链接 https://movie.douban.com/subject/1778049/
◎片  长 94 分钟
◎导  演 丹尼尔·杜瓦尔 Daniel Duval
◎编  剧 丹尼尔·杜瓦尔 Daniel Duval
◎主  演 丹尼尔·杜瓦尔 Daniel Duval
       Rapha?l Katz
       Philippe Khorsand
       德尼·波达利德斯 Denis Podalydès
       洛兰特·道驰 Lorànt Deutsch
       安妮·波诺什 Anne Brochet
       让-保罗·卢弗 Jean-Paul Rouve
       梅兰妮·贝尔内尔 Mélanie Bernier
       路易斯·杜索尔 Louis Dussol
       安妮·吉拉尔多 Annie Girardot
◎标  签 儿童 | 法国 | 法国电影 | 人性 | 2006 | #法国 | 已下 | 待译
◎简  介


  暂无相关剧情先容
  1. Video
  2. ID                                       : 1
  3. Format                                   : AVC
  4. Format/Info                              : Advanced Video Codec
  5. Format profile                           : [email protected]
  6. Format settings                          : CABAC / 4 Ref Frames
  7. Format settings, CABAC                   : Yes
  8. Format settings, Reference frames        : 4 frames
  9. Codec ID                                 : V_MPEG4/ISO/AVC
  10. Duration                                 : 1 h 29 min
  11. Bit rate                                 : 14.4 Mb/s
  12. Width                                    : 1 920 pixels
  13. Height                                   : 816 pixels
  14. Display aspect ratio                     : 2.35:1
  15. Frame rate mode                          : Constant
  16. Frame rate                               : 25.000 FPS
  17. Color space                              : YUV
  18. Chroma subsampling                       : 4:2:0
  19. Bit depth                                : 8 bits
  20. Scan type                                : Progressive
  21. Bits/(Pixel*Frame)                       : 0.367
  22. Stream size                              : 9.01 GiB (96%)
  23. Language                                 : English
  24. Default                                  : Yes
  25. Forced                                   : No
  26. Color range                              : Limited
  27. Color primaries                          : BT.709
  28. Transfer characteristics                 : BT.709
  29. Matrix coefficients                      : BT.709
  30. Audio
  31. ID                                       : 2
  32. Format                                   : E-AC-3
  33. Format/Info                              : Enhanced AC-3
  34. Commercial name                          : Dolby Digital Plus
  35. Codec ID                                 : A_EAC3
  36. Duration                                 : 1 h 29 min
  37. Bit rate mode                            : Constant
  38. Bit rate                                 : 640 kb/s
  39. Channel(s)                               : 6 channels
  40. Channel layout                           : L R C LFE Ls Rs
  41. Sampling rate                            : 48.0 kHz
  42. Frame rate                               : 31.250 FPS (1536 SPF)
  43. Compression mode                         : Lossy
  44. Stream size                              : 411 MiB (4%)
  45. Language                                 : French
  46. Service kind                             : Complete Main
  47. Default                                  : Yes
  48. Forced                                   : No
  49. Text
  50. ID                                       : 3
  51. Format                                   : UTF-8
  52. Codec ID                                 : S_TEXT/UTF8
  53. Codec ID/Info                            : UTF-8 Plain Text
  54. Duration                                 : 1 h 28 min
  55. Bit rate                                 : 18 b/s
  56. Count of elements                        : 572
  57. Stream size                              : 12.2 KiB (0%)
  58. Title                                    : SDH
  59. Language                                 : English
  60. Default                                  : Yes
  61. Forced                                   : No
复制代码






                                       
                                       

                                       
                                       
                                       




回复

使用道具 举报

懒得打字嘛,点击右侧快捷回复 【右侧内容,后台自定义】
您需要登录后才可以回帖 登录 | 立即加入

本版积分规则

Copyright © 2024 Comsenz Inc. Powered by 蓝光电影网

本站内容由用户自主分享和转载自互联网,转载目的在于传递更多信息,并不代表本网赞同其观点和对其真实性负责。

如有侵权、违反国家法律政策行为,请联系我们,我们会第一时间及时清除和处理!

举报反馈邮箱:4k1080.com@gmail.com

快速回复 返回顶部 返回列表