找回密码

查看: 1133|回复: 0

[UHD.HEVC] 疾速备战 John.Wick.Chapter.3.Parabellum.2019.2160p.BluRay.REMUX.HEVC.DTS-HD.MA.TrueHD.7.1.Atmos-FGT 74.26GB

[复制链接]
蓝光币
1848
发表于 2019-9-3 14:11:59 | 显示全部楼层 |阅读模式


◎译  名 快速备战 / Alpha Cop / John Wick 3 / John Wick 3: Parabellum / John Wick: Chapter 3 / 保卫使命3:周全开战(台) / 杀神John Wick 3(港) / 极速追杀:第三章 / 快速追杀3 / 快速流亡 / 约翰·威克3 / 还我狗命3(豆友译名)
◎片  名 John Wick: Chapter 3 - Parabellum
◎年  代 2019
◎产  地 美国
◎类  别 行动 / 惊悚 / 犯罪
◎语  言 英语 / 俄语 / 日语 / 意大利语 / 阿拉伯语
◎上映日期 2019-05-17(美国)
◎IMDb评分  7.8/10 from 130864 users
◎IMDb链接  http://www.imdb.com/title/tt6146586
◎豆瓣评分 8.0/10 from 49459 users
◎豆瓣链接 https://movie.douban.com/subject/26909790/
◎片  长 131分钟
◎导  演 查德·斯塔赫斯基 Chad Stahelski
◎编  剧 德里克·科尔斯塔 Derek Kolstad / 谢伊·哈滕  Shay Hatten / 克里斯·柯林斯 Chris Collins / 马克·艾布拉姆斯 Marc Abrams
◎主  演 基努·里维斯 Keanu Reeves
       哈莉·贝瑞 Halle Berry
       劳伦斯·菲什伯恩 Laurence Fishburne
       安杰丽卡·休斯顿 Anjelica Huston
       伊恩·麦柯肖恩 Ian McShane
       马克·达卡斯考斯 Mark Dacascos
       艾莎·凯特·狄龙 Asia Kate Dillon
       兰斯·莱迪克 Lance Reddick
       萨伊德·塔格马奥 Sa?d Taghmaoui
       杰罗姆·弗林 Jerome Flynn
       杰森·曼兹沃克斯 Jason Mantzoukas
       托拜厄斯·西格尔 Tobias Segal
       博班·马里亚诺维奇 Boban Marjanovic
       罗宾·泰勒 Robin Lord Taylor
       罗比·德拉费勒 Robbie DeRaffele
       费斯·洛根 Faith Logan
       雅彦·鲁伊安 Yayan Ruhian
       兰德尔·杜克·金 Randall Duk Kim
       袁之正 Roger Yuan
       陈虎 Tiger Hu Chen
       安东尼·帕迪利亚 Anthony Padilla
       斯特凡尼娅·马卡洛娃 Stefaniya Makarova
       西尔维奥·西马克 Silvio Simac
       马米·科西科 Marmee Cosico
       罗曼·米蒂齐扬 Roman Mitichyan
       塞塞普·阿里夫·拉赫曼 Cecep Arif Rahman
       安妮·比萨比亚 Annie Pisapia
       约翰·盖蒂尔 John Gettier

◎标  签 行动 | 暴力美学 | 暴力 | 美国 | 犯罪 | 肾上腺素 | 2019 | 杀手
◎简  介  
  约翰·威克履历了前两次的追杀、特攻以后,由于执意破坏酒店规矩,因此遭到悬赏通缉,全球杀手闻风而至、一路追杀。此次他又将若何杀出重围,终结这场流亡之旅。
  1. Video #1
  2. ID                                       : 1
  3. Format                                   : HEVC
  4. Format/Info                              : High Efficiency Video Coding
  5. Format profile                           : Main [email protected]@High
  6. HDR format                               : SMPTE ST 2086, HDR10 compatible
  7. Codec ID                                 : V_MPEGH/ISO/HEVC
  8. Duration                                 : 2 h 10 min
  9. Bit rate                                 : 63.2 Mb/s
  10. Width                                    : 3 840 pixels
  11. Height                                   : 2 160 pixels
  12. Display aspect ratio                     : 16:9
  13. Frame rate mode                          : Constant
  14. Frame rate                               : 23.976 (24000/1001) FPS
  15. Color space                              : YUV
  16. Chroma subsampling                       : 4:2:0 (Type 2)
  17. Bit depth                                : 10 bits
  18. Bits/(Pixel*Frame)                       : 0.318
  19. Stream size                              : 57.7 GiB (78%)
  20. Title                                    : John.Wick.Chapter.3.Parabellum.2019.2160p.BluRay.REMUX.HEVC.DTS-HD.MA.TrueHD.7.1.Atmos-FGT
  21. Language                                 : English
  22. Default                                  : Yes
  23. Forced                                   : No
  24. Color range                              : Limited
  25. Color primaries                          : BT.2020
  26. Transfer characteristics                 : PQ
  27. Matrix coefficients                      : BT.2020 non-constant
  28. Mastering display color primaries        : Display P3
  29. Mastering display luminance              : min: 0.0010 cd/m2, max: 1000 cd/m2
  30. Maximum Content Light Level              : 1000 cd/m2
  31. Maximum Frame-Average Light Level        : 358 cd/m2
  32. Video #2
  33. ID                                       : 2
  34. Format                                   : HEVC
  35. Format/Info                              : High Efficiency Video Coding
  36. Format profile                           : Main [email protected]@High
  37. HDR format                               : SMPTE ST 2086, HDR10 compatible
  38. Codec ID                                 : V_MPEGH/ISO/HEVC
  39. Duration                                 : 2 h 10 min
  40. Bit rate                                 : 7 625 kb/s
  41. Width                                    : 1 920 pixels
  42. Height                                   : 1 080 pixels
  43. Display aspect ratio                     : 16:9
  44. Frame rate mode                          : Constant
  45. Frame rate                               : 23.976 (24000/1001) FPS
  46. Color space                              : YUV
  47. Chroma subsampling                       : 4:2:0 (Type 2)
  48. Bit depth                                : 10 bits
  49. Bits/(Pixel*Frame)                       : 0.153
  50. Stream size                              : 6.97 GiB (9%)
  51. Title                                    : John.Wick.Chapter.3.Parabellum.2019.2160p.BluRay.REMUX.HEVC.DTS-HD.MA.TrueHD.7.1.Atmos-FGT
  52. Default                                  : No
  53. Forced                                   : No
  54. Color range                              : Limited
  55. Color primaries                          : BT.2020
  56. Transfer characteristics                 : PQ
  57. Matrix coefficients                      : BT.2020 non-constant
  58. Mastering display color primaries        : Display P3
  59. Mastering display luminance              : min: 0.0010 cd/m2, max: 1000 cd/m2
  60. Audio #1
  61. ID                                       : 3
  62. Format                                   : MLP FBA 16-ch
  63. Format/Info                              : Meridian Lossless Packing FBA with 16-channel presentation
  64. Commercial name                          : Dolby TrueHD with Dolby Atmos
  65. Codec ID                                 : A_TRUEHD
  66. Duration                                 : 2 h 10 min
  67. Bit rate mode                            : Variable
  68. Bit rate                                 : 4 012 kb/s
  69. Maximum bit rate                         : 6 327 kb/s
  70. Channel(s)                               : 8 channels
  71. Channel layout                           : L R C LFE Ls Rs Lb Rb
  72. Sampling rate                            : 48.0 kHz
  73. Frame rate                               : 1 200.000 FPS (40 SPF)
  74. Compression mode                         : Lossless
  75. Stream size                              : 3.66 GiB (5%)
  76. Title                                    : John.Wick.Chapter.3.Parabellum.2019.2160p.BluRay.REMUX.HEVC.DTS-HD.MA.TrueHD.7.1.Atmos-FGT
  77. Language                                 : English
  78. Default                                  : Yes
  79. Forced                                   : No
  80. Number of dynamic objects                : 15
  81. Bed channel count                        : 1 channel
  82. Bed channel configuration                : LFE
  83. Audio #2
  84. ID                                       : 4
  85. Format                                   : DTS XLL
  86. Format/Info                              : Digital Theater Systems
  87. Commercial name                          : DTS-HD Master Audio
  88. Codec ID                                 : A_DTS
  89. Duration                                 : 2 h 10 min
  90. Bit rate mode                            : Variable
  91. Bit rate                                 : 4 439 kb/s
  92. Channel(s)                               : 8 channels
  93. Channel layout                           : C L R LFE Lb Rb Lss Rss
  94. Sampling rate                            : 48.0 kHz
  95. Frame rate                               : 93.750 FPS (512 SPF)
  96. Bit depth                                : 24 bits
  97. Compression mode                         : Lossless
  98. Stream size                              : 4.05 GiB (5%)
  99. Title                                    : John.Wick.Chapter.3.Parabellum.2019.2160p.BluRay.REMUX.HEVC.DTS-HD.MA.TrueHD.7.1.Atmos-FGT
  100. Language                                 : English
  101. Default                                  : No
  102. Forced                                   : No
  103. Audio #3
  104. ID                                       : 5
  105. Format                                   : AC-3
  106. Format/Info                              : Audio Coding 3
  107. Commercial name                          : Dolby Digital
  108. Codec ID                                 : A_AC3
  109. Duration                                 : 2 h 10 min
  110. Bit rate mode                            : Constant
  111. Bit rate                                 : 640 kb/s
  112. Channel(s)                               : 6 channels
  113. Channel layout                           : L R C LFE Ls Rs
  114. Sampling rate                            : 48.0 kHz
  115. Frame rate                               : 31.250 FPS (1536 SPF)
  116. Bit depth                                : 16 bits
  117. Compression mode                         : Lossy
  118. Stream size                              : 599 MiB (1%)
  119. Title                                    : John.Wick.Chapter.3.Parabellum.2019.2160p.BluRay.REMUX.HEVC.DTS-HD.MA.TrueHD.7.1.Atmos-FGT
  120. Language                                 : English
  121. Service kind                             : Complete Main
  122. Default                                  : No
  123. Forced                                   : No
  124. Audio #4
  125. ID                                       : 6
  126. Format                                   : AC-3
  127. Format/Info                              : Audio Coding 3
  128. Commercial name                          : Dolby Digital
  129. Codec ID                                 : A_AC3
  130. Duration                                 : 2 h 10 min
  131. Bit rate mode                            : Constant
  132. Bit rate                                 : 224 kb/s
  133. Channel(s)                               : 2 channels
  134. Channel layout                           : L R
  135. Sampling rate                            : 48.0 kHz
  136. Frame rate                               : 31.250 FPS (1536 SPF)
  137. Bit depth                                : 16 bits
  138. Compression mode                         : Lossy
  139. Stream size                              : 210 MiB (0%)
  140. Title                                    : John.Wick.Chapter.3.Parabellum.2019.2160p.BluRay.REMUX.HEVC.DTS-HD.MA.TrueHD.7.1.Atmos-FGT
  141. Language                                 : English
  142. Service kind                             : Complete Main
  143. Default                                  : No
  144. Forced                                   : No
  145. Audio #5
  146. ID                                       : 7
  147. Format                                   : AC-3
  148. Format/Info                              : Audio Coding 3
  149. Commercial name                          : Dolby Digital
  150. Codec ID                                 : A_AC3
  151. Duration                                 : 2 h 10 min
  152. Bit rate mode                            : Constant
  153. Bit rate                                 : 192 kb/s
  154. Channel(s)                               : 2 channels
  155. Channel layout                           : L R
  156. Sampling rate                            : 48.0 kHz
  157. Frame rate                               : 31.250 FPS (1536 SPF)
  158. Bit depth                                : 16 bits
  159. Compression mode                         : Lossy
  160. Stream size                              : 180 MiB (0%)
  161. Title                                    : John.Wick.Chapter.3.Parabellum.2019.2160p.BluRay.REMUX.HEVC.DTS-HD.MA.TrueHD.7.1.Atmos-FGT
  162. Language                                 : English
  163. Service kind                             : Complete Main
  164. Default                                  : No
  165. Forced                                   : No
  166. Audio #6
  167. ID                                       : 8
  168. Format                                   : AC-3
  169. Format/Info                              : Audio Coding 3
  170. Commercial name                          : Dolby Digital
  171. Codec ID                                 : A_AC3
  172. Duration                                 : 2 h 10 min
  173. Bit rate mode                            : Constant
  174. Bit rate                                 : 448 kb/s
  175. Channel(s)                               : 6 channels
  176. Channel layout                           : L R C LFE Ls Rs
  177. Sampling rate                            : 48.0 kHz
  178. Frame rate                               : 31.250 FPS (1536 SPF)
  179. Bit depth                                : 16 bits
  180. Compression mode                         : Lossy
  181. Stream size                              : 419 MiB (1%)
  182. Title                                    : John.Wick.Chapter.3.Parabellum.2019.2160p.BluRay.REMUX.HEVC.DTS-HD.MA.TrueHD.7.1.Atmos-FGT
  183. Language                                 : Spanish
  184. Service kind                             : Complete Main
  185. Default                                  : No
  186. Forced                                   : No
  187. Audio #7
  188. ID                                       : 9
  189. Format                                   : AC-3
  190. Format/Info                              : Audio Coding 3
  191. Commercial name                          : Dolby Digital
  192. Codec ID                                 : A_AC3
  193. Duration                                 : 2 h 10 min
  194. Bit rate mode                            : Constant
  195. Bit rate                                 : 448 kb/s
  196. Channel(s)                               : 6 channels
  197. Channel layout                           : L R C LFE Ls Rs
  198. Sampling rate                            : 48.0 kHz
  199. Frame rate                               : 31.250 FPS (1536 SPF)
  200. Bit depth                                : 16 bits
  201. Compression mode                         : Lossy
  202. Stream size                              : 419 MiB (1%)
  203. Title                                    : John.Wick.Chapter.3.Parabellum.2019.2160p.BluRay.REMUX.HEVC.DTS-HD.MA.TrueHD.7.1.Atmos-FGT
  204. Language                                 : French
  205. Service kind                             : Complete Main
  206. Default                                  : No
  207. Forced                                   : No
  208. Text #1
  209. ID                                       : 10
  210. Format                                   : UTF-8
  211. Codec ID                                 : S_TEXT/UTF8
  212. Codec ID/Info                            : UTF-8 Plain Text
  213. Duration                                 : 1 h 59 min
  214. Bit rate                                 : 24 b/s
  215. Count of elements                        : 683
  216. Stream size                              : 21.1 KiB (0%)
  217. Title                                    : English-SRT
  218. Language                                 : English
  219. Default                                  : Yes
  220. Forced                                   : No
  221. Text #2
  222. ID                                       : 11
  223. Format                                   : PGS
  224. Muxing mode                              : zlib
  225. Codec ID                                 : S_HDMV/PGS
  226. Codec ID/Info                            : Picture based subtitle format used on BDs/HD-DVDs
  227. Duration                                 : 1 h 59 min
  228. Bit rate                                 : 17.0 kb/s
  229. Count of elements                        : 1370
  230. Stream size                              : 14.6 MiB (0%)
  231. Title                                    : English-PGS
  232. Language                                 : English
  233. Default                                  : No
  234. Forced                                   : No
  235. Text #3
  236. ID                                       : 12
  237. Format                                   : PGS
  238. Muxing mode                              : zlib
  239. Codec ID                                 : S_HDMV/PGS
  240. Codec ID/Info                            : Picture based subtitle format used on BDs/HD-DVDs
  241. Duration                                 : 2 h 0 min
  242. Bit rate                                 : 22.1 kb/s
  243. Count of elements                        : 2042
  244. Stream size                              : 19.1 MiB (0%)
  245. Title                                    : English-SDH-PGS
  246. Language                                 : English
  247. Default                                  : No
  248. Forced                                   : No
  249. Text #4
  250. ID                                       : 13
  251. Format                                   : PGS
  252. Muxing mode                              : zlib
  253. Codec ID                                 : S_HDMV/PGS
  254. Codec ID/Info                            : Picture based subtitle format used on BDs/HD-DVDs
  255. Duration                                 : 2 h 0 min
  256. Bit rate                                 : 17.5 kb/s
  257. Count of elements                        : 1538
  258. Stream size                              : 15.1 MiB (0%)
  259. Title                                    : Spanish-PGS
  260. Language                                 : Spanish
  261. Default                                  : No
  262. Forced                                   : No
  263. Text #5
  264. ID                                       : 14
  265. Format                                   : PGS
  266. Muxing mode                              : zlib
  267. Codec ID                                 : S_HDMV/PGS
  268. Codec ID/Info                            : Picture based subtitle format used on BDs/HD-DVDs
  269. Duration                                 : 1 h 47 min
  270. Bit rate                                 : 1 299 b/s
  271. Count of elements                        : 124
  272. Stream size                              : 1 021 KiB (0%)
  273. Title                                    : Spanish-FORCED-PGS
  274. Language                                 : Spanish
  275. Default                                  : No
  276. Forced                                   : No
  277. Text #6
  278. ID                                       : 15
  279. Format                                   : PGS
  280. Muxing mode                              : zlib
  281. Codec ID                                 : S_HDMV/PGS
  282. Codec ID/Info                            : Picture based subtitle format used on BDs/HD-DVDs
  283. Duration                                 : 1 h 59 min
  284. Bit rate                                 : 17.2 kb/s
  285. Count of elements                        : 1672
  286. Stream size                              : 14.8 MiB (0%)
  287. Title                                    : French-PGS
  288. Language                                 : French
  289. Default                                  : No
  290. Forced                                   : No
  291. Text #7
  292. ID                                       : 16
  293. Format                                   : PGS
  294. Muxing mode                              : zlib
  295. Codec ID                                 : S_HDMV/PGS
  296. Codec ID/Info                            : Picture based subtitle format used on BDs/HD-DVDs
  297. Duration                                 : 1 h 46 min
  298. Bit rate                                 : 1 022 b/s
  299. Count of elements                        : 88
  300. Stream size                              : 800 KiB (0%)
  301. Title                                    : French-FORCED-PGS
  302. Language                                 : French
  303. Default                                  : No
  304. Forced                                   : No
  305. Menu
  306. 00:00:00.000                             : en:Chapter 01
  307. 00:08:46.776                             : en:Chapter 02
  308. 00:14:06.637                             : en:Chapter 03
  309. 00:22:40.067                             : en:Chapter 04
  310. 00:31:26.301                             : en:Chapter 05
  311. 00:37:51.310                             : en:Chapter 06
  312. 00:47:43.318                             : en:Chapter 07
  313. 00:57:08.842                             : en:Chapter 08
  314. 01:02:56.439                             : en:Chapter 09
  315. 01:14:27.588                             : en:Chapter 10
  316. 01:20:36.623                             : en:Chapter 11
  317. 01:28:48.323                             : en:Chapter 12
  318. 01:33:51.792                             : en:Chapter 13
  319. 01:41:31.794                             : en:Chapter 14
  320. 01:53:44.651                             : en:Chapter 15
  321. 01:59:51.434                             : en:Chapter 16
复制代码






                                       
                                       

                                       
                                       
                                       




快速备战 John.Wick.Chapter.3.Parabellum.2019.2160p.BluRay.REMUX.HEVC.DTS-HD.MA.TrueHD.7.1.Atmos-FGT 74.26GB

John.Wick.Chapter.3.Parabellum.2019.2160p.BluRay.REMUX.HEVC.DTS-HD.MA.TrueHD.7.1.torrent

186.25 KB, 下载次数: 21, 下载积分: 蓝光币 -2

回复

使用道具 举报

懒得打字嘛,点击右侧快捷回复 【右侧内容,后台自定义】
您需要登录后才可以回帖 登录 | 立即加入

本版积分规则

Copyright © 2024 Comsenz Inc. Powered by 蓝光电影网

本站内容由用户自主分享和转载自互联网,转载目的在于传递更多信息,并不代表本网赞同其观点和对其真实性负责。

如有侵权、违反国家法律政策行为,请联系我们,我们会第一时间及时清除和处理!

举报反馈邮箱:4k1080.com@gmail.com

快速回复 返回顶部 返回列表