找回密码

蓝光电影网

查看: 736|回复: 0

[2160p] 闪灵/幻觉 The.Shining.1980.US.DC.2160p.BluRay.x265.10bit.SDR.DTS-HD.MA.5.1-SWTYBLZ 62.08GB

[复制链接]
蓝光币
1432
发表于 2019-9-25 10:21:18 | 显示全部楼层 |阅读模式


◎译  名 闪灵 / 幻觉 / 幽光 / 鬼店(台)
◎片  名 The Shining
◎年  代 1980
◎产  地 英国 / 美国
◎类  别 剧情 / 悬疑 / 可骇
◎语  言 英语
◎上映日期 1980-05-23(美国)
◎IMDb评分  8.4/10 from 798884 users
◎IMDb链接  http://www.imdb.com/title/tt0081505
◎豆瓣评分 8.1/10 from 250508 users
◎豆瓣链接 https://movie.douban.com/subject/1292225/
◎片  长 119分钟(欧洲版)
◎导  演 斯坦利·库布里克 Stanley Kubrick
◎编  剧 斯坦利·库布里克 Stanley Kubrick / 黛安·约翰逊 Diane Johnson / 斯蒂芬·金 Stephen King
◎主  演 杰克·尼科尔森 Jack Nicholson
       谢莉·杜瓦尔 Shelley Duvall
       丹尼·劳埃德 Danny Lloyd
       斯加特克罗索斯 Scatman Crothers
       巴瑞·尼尔森 Barry Nelson
       菲利普·斯通 Philip Stone
       乔·托克尔 Joe Turkel
       安妮·杰克逊 Anne Jackson
       托尼·伯顿 Tony Burton

◎标  签 惊悚 | 可骇 | 美国 | 悬疑 | 库布里克 | 斯坦利·库布里克 | 可骇片 | 美国电影
◎简  介  
  杰克(杰克?尼科尔森 Jack Nicholson 饰)是一个作家。一个冬季,他获得了一个看管山顶酒店的差事。这正合杰克的意义,他恰好可以有一个清幽的地方写作。因而杰克带着妻儿搬进了酒店。
  冬季大雪封路,山顶酒店只要杰克一家三口。从他们一搬进来,杰克的妻子温蒂(谢莉·杜瓦尔 Shelley Duvall 饰)就发现这里氛围诡异,杰克的儿子丹尼(丹尼·劳埃德 Danny Lloyd 饰)经常看到一些他不熟悉的人,但这里除了他们一家别无他人。而杰克除了一成天闷头写作外,脾性亦变得越来越怪僻。
  直到有一天,温蒂发现丈夫这些天来一向写就只要一句话:杰克发狂了!
  1. Video
  2. ID                                       : 1
  3. Format                                   : HEVC
  4. Format/Info                              : High Efficiency Video Coding
  5. Format profile                           : Main [email protected]@High
  6. Codec ID                                 : V_MPEGH/ISO/HEVC
  7. Duration                                 : 2 h 23 min
  8. Bit rate                                 : 56.7 Mb/s
  9. Width                                    : 3 840 pixels
  10. Height                                   : 2 160 pixels
  11. Display aspect ratio                     : 16:9
  12. Frame rate mode                          : Constant
  13. Frame rate                               : 23.976 (24000/1001) FPS
  14. Color space                              : YUV
  15. Chroma subsampling                       : 4:2:0
  16. Bit depth                                : 10 bits
  17. Bits/(Pixel*Frame)                       : 0.285
  18. Stream size                              : 56.9 GiB (92%)
  19. Title                                    : The.Shining.1980.US.DC.2160p.BluRay.x265.10bit.SDR.DTS-HD.MA.5.1-SWTYBLZ
  20. Writing library                          : x265 3.0ed72af837053:[Windows][GCC 8.2.0][64 bit] 10bit
  21. Encoding settings                        : cpuid=1111039 / frame-threads=16 / numa-pools=44,44 / wpp / no-pmode / no-pme / no-psnr / no-ssim / log-level=2 / input-csp=1 / input-res=3840x2160 / interlace=0 / total-frames=206811 / level-idc=51 / high-tier=1 / uhd-bd=0 / ref=3 / no-allow-non-conformance / repeat-headers / annexb / aud / hrd / info / hash=0 / no-temporal-layers / no-open-gop / min-keyint=1 / keyint=24 / gop-lookahead=0 / bframes=4 / b-adapt=2 / b-pyramid / bframe-bias=0 / rc-lookahead=25 / lookahead-slices=4 / scenecut=40 / radl=0 / no-splice / no-intra-refresh / ctu=64 / min-cu-size=8 / no-rect / no-amp / max-tu-size=32 / tu-inter-depth=1 / tu-intra-depth=1 / limit-tu=0 / rdoq-level=0 / dynamic-rd=0.00 / no-ssim-rd / signhide / no-tskip / nr-intra=0 / nr-inter=0 / no-constrained-intra / strong-intra-smoothing / max-merge=2 / limit-refs=3 / no-limit-modes / me=1 / subme=2 / merange=57 / temporal-mvp / weightp / no-weightb / no-analyze-src-pics / deblock=0:0 / no-sao / no-sao-non-deblock / rd=3 / no-early-skip / rskip / no-fast-intra / no-tskip-fast / no-cu-lossless / no-b-intra / no-splitrd-skip / rdpenalty=0 / psy-rd=2.00 / psy-rdoq=0.00 / no-rd-refine / no-lossless / cbqpoffs=0 / crqpoffs=0 / rc=crf / crf=18.0 / qcomp=0.60 / qpstep=4 / stats-write=0 / stats-read=0 / vbv-maxrate=160000 / vbv-bufsize=160000 / vbv-init=0.9 / crf-max=0.0 / crf-min=0.0 / ipratio=1.40 / pbratio=1.30 / aq-mode=1 / aq-strength=1.00 / cutree / zone-count=0 / no-strict-cbr / qg-size=32 / no-rc-grain / qpmax=69 / qpmin=0 / no-const-vbv / sar=1 / overscan=0 / videoformat=5 / range=0 / colorprim=2 / transfer=2 / colormatrix=2 / chromaloc=0 / display-window=0 / max-cll=0,0 / min-luma=0 / max-luma=1023 / log2-max-poc-lsb=8 / vui-timing-info / vui-hrd-info / slices=1 / opt-qp-pps / opt-ref-list-length-pps / no-multi-pass-opt-rps / scenecut-bias=0.05 / no-opt-cu-delta-qp / no-aq-motion / no-hdr / no-hdr-opt / no-dhdr10-opt / no-idr-recovery-sei / analysis-reuse-level=5 / scale-factor=0 / refine-intra=0 / refine-inter=0 / refine-mv=0 / refine-ctu-distortion=0 / no-limit-sao / ctu-info=0 / no-lowpass-dct / refine-analysis-type=0 / copy-pic=1 / max-ausize-factor=1.0 / no-dynamic-refine / no-single-sei / no-hevc-aq / qp-adaptation-range=1.00
  22. Default                                  : Yes
  23. Forced                                   : No
  24. Audio #1
  25. ID                                       : 2
  26. Format                                   : DTS XLL
  27. Format/Info                              : Digital Theater Systems
  28. Commercial name                          : DTS-HD Master Audio
  29. Codec ID                                 : A_DTS
  30. Duration                                 : 2 h 23 min
  31. Bit rate mode                            : Variable
  32. Bit rate                                 : 4 098 kb/s
  33. Channel(s)                               : 6 channels
  34. Channel layout                           : C L R Ls Rs LFE
  35. Sampling rate                            : 48.0 kHz
  36. Frame rate                               : 93.750 FPS (512 SPF)
  37. Bit depth                                : 24 bits
  38. Compression mode                         : Lossless
  39. Stream size                              : 4.12 GiB (7%)
  40. Title                                    : The.Shining.1980.US.DC.2160p.BluRay.x265.10bit.SDR.DTS-HD.MA.5.1-SWTYBLZ
  41. Language                                 : English
  42. Default                                  : Yes
  43. Forced                                   : No
  44. Audio #2
  45. ID                                       : 3
  46. Format                                   : AC-3
  47. Format/Info                              : Audio Coding 3
  48. Commercial name                          : Dolby Digital
  49. Codec ID                                 : A_AC3
  50. Duration                                 : 2 h 23 min
  51. Bit rate mode                            : Constant
  52. Bit rate                                 : 640 kb/s
  53. Channel(s)                               : 6 channels
  54. Channel layout                           : L R C LFE Ls Rs
  55. Sampling rate                            : 48.0 kHz
  56. Frame rate                               : 31.250 FPS (1536 SPF)
  57. Bit depth                                : 16 bits
  58. Compression mode                         : Lossy
  59. Stream size                              : 658 MiB (1%)
  60. Title                                    : The.Shining.1980.US.DC.2160p.BluRay.x265.10bit.SDR.DTS-HD.MA.5.1-SWTYBLZ
  61. Language                                 : English
  62. Service kind                             : Complete Main
  63. Default                                  : No
  64. Forced                                   : No
  65. Text #1
  66. ID                                       : 4
  67. Format                                   : UTF-8
  68. Codec ID                                 : S_TEXT/UTF8
  69. Codec ID/Info                            : UTF-8 Plain Text
  70. Duration                                 : 2 h 14 min
  71. Bit rate                                 : 41 b/s
  72. Count of elements                        : 1453
  73. Stream size                              : 40.4 KiB (0%)
  74. Title                                    : English-SRT
  75. Language                                 : English
  76. Default                                  : Yes
  77. Forced                                   : No
  78. Text #2
  79. ID                                       : 5
  80. Format                                   : PGS
  81. Muxing mode                              : zlib
  82. Codec ID                                 : S_HDMV/PGS
  83. Codec ID/Info                            : Picture based subtitle format used on BDs/HD-DVDs
  84. Duration                                 : 2 h 16 min
  85. Bit rate                                 : 23.4 kb/s
  86. Count of elements                        : 3042
  87. Stream size                              : 22.8 MiB (0%)
  88. Title                                    : English-PGS
  89. Language                                 : English
  90. Default                                  : No
  91. Forced                                   : No
  92. Text #3
  93. ID                                       : 6
  94. Format                                   : PGS
  95. Muxing mode                              : zlib
  96. Codec ID                                 : S_HDMV/PGS
  97. Codec ID/Info                            : Picture based subtitle format used on BDs/HD-DVDs
  98. Duration                                 : 2 h 20 min
  99. Bit rate                                 : 18.4 kb/s
  100. Count of elements                        : 2378
  101. Stream size                              : 18.5 MiB (0%)
  102. Title                                    : French-PGS
  103. Language                                 : French
  104. Default                                  : No
  105. Forced                                   : No
  106. Text #4
  107. ID                                       : 7
  108. Format                                   : PGS
  109. Muxing mode                              : zlib
  110. Codec ID                                 : S_HDMV/PGS
  111. Codec ID/Info                            : Picture based subtitle format used on BDs/HD-DVDs
  112. Duration                                 : 2 h 18 min
  113. Bit rate                                 : 24.5 kb/s
  114. Count of elements                        : 3062
  115. Stream size                              : 24.2 MiB (0%)
  116. Title                                    : German-PGS
  117. Language                                 : German
  118. Default                                  : No
  119. Forced                                   : No
  120. Text #5
  121. ID                                       : 8
  122. Format                                   : PGS
  123. Muxing mode                              : zlib
  124. Codec ID                                 : S_HDMV/PGS
  125. Codec ID/Info                            : Picture based subtitle format used on BDs/HD-DVDs
  126. Duration                                 : 2 h 18 min
  127. Bit rate                                 : 24.0 kb/s
  128. Count of elements                        : 3050
  129. Stream size                              : 23.7 MiB (0%)
  130. Title                                    : Italian-PGS
  131. Language                                 : Italian
  132. Default                                  : No
  133. Forced                                   : No
  134. Text #6
  135. ID                                       : 9
  136. Format                                   : PGS
  137. Muxing mode                              : zlib
  138. Codec ID                                 : S_HDMV/PGS
  139. Codec ID/Info                            : Picture based subtitle format used on BDs/HD-DVDs
  140. Duration                                 : 2 h 18 min
  141. Bit rate                                 : 18.0 kb/s
  142. Count of elements                        : 2420
  143. Stream size                              : 17.8 MiB (0%)
  144. Title                                    : Dutch-PGS
  145. Language                                 : Dutch
  146. Default                                  : No
  147. Forced                                   : No
  148. Text #7
  149. ID                                       : 10
  150. Format                                   : PGS
  151. Muxing mode                              : zlib
  152. Codec ID                                 : S_HDMV/PGS
  153. Codec ID/Info                            : Picture based subtitle format used on BDs/HD-DVDs
  154. Duration                                 : 2 h 19 min
  155. Bit rate                                 : 19.4 kb/s
  156. Count of elements                        : 2698
  157. Stream size                              : 19.4 MiB (0%)
  158. Title                                    : Chinese-PGS
  159. Language                                 : Chinese
  160. Default                                  : No
  161. Forced                                   : No
  162. Text #8
  163. ID                                       : 11
  164. Format                                   : PGS
  165. Muxing mode                              : zlib
  166. Codec ID                                 : S_HDMV/PGS
  167. Codec ID/Info                            : Picture based subtitle format used on BDs/HD-DVDs
  168. Duration                                 : 2 h 19 min
  169. Bit rate                                 : 15.0 kb/s
  170. Count of elements                        : 2638
  171. Stream size                              : 15.0 MiB (0%)
  172. Title                                    : Korean-PGS
  173. Language                                 : Korean
  174. Default                                  : No
  175. Forced                                   : No
  176. Text #9
  177. ID                                       : 12
  178. Format                                   : PGS
  179. Muxing mode                              : zlib
  180. Codec ID                                 : S_HDMV/PGS
  181. Codec ID/Info                            : Picture based subtitle format used on BDs/HD-DVDs
  182. Duration                                 : 2 h 18 min
  183. Bit rate                                 : 18.3 kb/s
  184. Count of elements                        : 2628
  185. Stream size                              : 18.1 MiB (0%)
  186. Title                                    : Spanish-PGS
  187. Language                                 : Spanish
  188. Default                                  : No
  189. Forced                                   : No
  190. Text #10
  191. ID                                       : 13
  192. Format                                   : PGS
  193. Muxing mode                              : zlib
  194. Codec ID                                 : S_HDMV/PGS
  195. Codec ID/Info                            : Picture based subtitle format used on BDs/HD-DVDs
  196. Duration                                 : 2 h 19 min
  197. Bit rate                                 : 10.7 kb/s
  198. Count of elements                        : 2624
  199. Stream size                              : 10.7 MiB (0%)
  200. Title                                    : Arabic-PGS
  201. Language                                 : Arabic
  202. Default                                  : No
  203. Forced                                   : No
  204. Text #11
  205. ID                                       : 14
  206. Format                                   : PGS
  207. Muxing mode                              : zlib
  208. Codec ID                                 : S_HDMV/PGS
  209. Codec ID/Info                            : Picture based subtitle format used on BDs/HD-DVDs
  210. Duration                                 : 2 h 19 min
  211. Bit rate                                 : 18.0 kb/s
  212. Count of elements                        : 2708
  213. Stream size                              : 18.0 MiB (0%)
  214. Title                                    : Czech-PGS
  215. Language                                 : Czech
  216. Default                                  : No
  217. Forced                                   : No
  218. Text #12
  219. ID                                       : 15
  220. Format                                   : PGS
  221. Muxing mode                              : zlib
  222. Codec ID                                 : S_HDMV/PGS
  223. Codec ID/Info                            : Picture based subtitle format used on BDs/HD-DVDs
  224. Duration                                 : 2 h 20 min
  225. Bit rate                                 : 19.6 kb/s
  226. Count of elements                        : 2494
  227. Stream size                              : 19.7 MiB (0%)
  228. Title                                    : Danish-PGS
  229. Language                                 : Danish
  230. Default                                  : No
  231. Forced                                   : No
  232. Text #13
  233. ID                                       : 16
  234. Format                                   : PGS
  235. Muxing mode                              : zlib
  236. Codec ID                                 : S_HDMV/PGS
  237. Codec ID/Info                            : Picture based subtitle format used on BDs/HD-DVDs
  238. Duration                                 : 2 h 19 min
  239. Bit rate                                 : 15.6 kb/s
  240. Count of elements                        : 1978
  241. Stream size                              : 15.6 MiB (0%)
  242. Title                                    : Finnish-PGS
  243. Language                                 : Finnish
  244. Default                                  : No
  245. Forced                                   : No
  246. Text #14
  247. ID                                       : 17
  248. Format                                   : PGS
  249. Muxing mode                              : zlib
  250. Codec ID                                 : S_HDMV/PGS
  251. Codec ID/Info                            : Picture based subtitle format used on BDs/HD-DVDs
  252. Duration                                 : 2 h 19 min
  253. Bit rate                                 : 19.8 kb/s
  254. Count of elements                        : 2702
  255. Stream size                              : 19.8 MiB (0%)
  256. Title                                    : Hungarian-PGS
  257. Language                                 : Hungarian
  258. Default                                  : No
  259. Forced                                   : No
  260. Text #15
  261. ID                                       : 18
  262. Format                                   : PGS
  263. Muxing mode                              : zlib
  264. Codec ID                                 : S_HDMV/PGS
  265. Codec ID/Info                            : Picture based subtitle format used on BDs/HD-DVDs
  266. Duration                                 : 2 h 19 min
  267. Bit rate                                 : 17.5 kb/s
  268. Count of elements                        : 2252
  269. Stream size                              : 17.5 MiB (0%)
  270. Title                                    : Norwegian-PGS
  271. Language                                 : Norwegian
  272. Default                                  : No
  273. Forced                                   : No
  274. Text #16
  275. ID                                       : 19
  276. Format                                   : PGS
  277. Muxing mode                              : zlib
  278. Codec ID                                 : S_HDMV/PGS
  279. Codec ID/Info                            : Picture based subtitle format used on BDs/HD-DVDs
  280. Duration                                 : 2 h 19 min
  281. Bit rate                                 : 17.3 kb/s
  282. Count of elements                        : 2562
  283. Stream size                              : 17.2 MiB (0%)
  284. Title                                    : Polish-PGS
  285. Language                                 : Polish
  286. Default                                  : No
  287. Forced                                   : No
  288. Text #17
  289. ID                                       : 20
  290. Format                                   : PGS
  291. Muxing mode                              : zlib
  292. Codec ID                                 : S_HDMV/PGS
  293. Codec ID/Info                            : Picture based subtitle format used on BDs/HD-DVDs
  294. Duration                                 : 2 h 18 min
  295. Bit rate                                 : 19.9 kb/s
  296. Count of elements                        : 2710
  297. Stream size                              : 19.6 MiB (0%)
  298. Title                                    : Romanian-PGS
  299. Language                                 : Romanian
  300. Default                                  : No
  301. Forced                                   : No
  302. Text #18
  303. ID                                       : 21
  304. Format                                   : PGS
  305. Muxing mode                              : zlib
  306. Codec ID                                 : S_HDMV/PGS
  307. Codec ID/Info                            : Picture based subtitle format used on BDs/HD-DVDs
  308. Duration                                 : 2 h 19 min
  309. Bit rate                                 : 20.6 kb/s
  310. Count of elements                        : 2634
  311. Stream size                              : 20.5 MiB (0%)
  312. Title                                    : Russian-PGS
  313. Language                                 : Russian
  314. Default                                  : No
  315. Forced                                   : No
  316. Text #19
  317. ID                                       : 22
  318. Format                                   : PGS
  319. Muxing mode                              : zlib
  320. Codec ID                                 : S_HDMV/PGS
  321. Codec ID/Info                            : Picture based subtitle format used on BDs/HD-DVDs
  322. Duration                                 : 2 h 18 min
  323. Bit rate                                 : 17.0 kb/s
  324. Count of elements                        : 2338
  325. Stream size                              : 16.8 MiB (0%)
  326. Title                                    : Swedish-PGS
  327. Language                                 : Swedish
  328. Default                                  : No
  329. Forced                                   : No
  330. Text #20
  331. ID                                       : 23
  332. Format                                   : PGS
  333. Muxing mode                              : zlib
  334. Codec ID                                 : S_HDMV/PGS
  335. Codec ID/Info                            : Picture based subtitle format used on BDs/HD-DVDs
  336. Duration                                 : 2 h 18 min
  337. Bit rate                                 : 19.3 kb/s
  338. Count of elements                        : 2716
  339. Stream size                              : 19.1 MiB (0%)
  340. Title                                    : Thai-PGS
  341. Language                                 : Thai
  342. Default                                  : No
  343. Forced                                   : No
  344. Text #21
  345. ID                                       : 24
  346. Format                                   : PGS
  347. Muxing mode                              : zlib
  348. Codec ID                                 : S_HDMV/PGS
  349. Codec ID/Info                            : Picture based subtitle format used on BDs/HD-DVDs
  350. Duration                                 : 2 h 21 min
  351. Bit rate                                 : 40.2 kb/s
  352. Count of elements                        : 3936
  353. Stream size                              : 40.5 MiB (0%)
  354. Title                                    : Chinese-PGS
  355. Language                                 : Chinese
  356. Default                                  : No
  357. Forced                                   : No
  358. Menu
  359. 00:00:00.000                             : en:Chapter 01
  360. 00:03:00.388                             : en:Chapter 02
  361. 00:05:04.846                             : en:Chapter 03
  362. 00:10:33.799                             : en:Chapter 04
  363. 00:12:08.394                             : en:Chapter 05
  364. 00:14:24.280                             : en:Chapter 06
  365. 00:17:37.556                             : en:Chapter 07
  366. 00:20:30.896                             : en:Chapter 08
  367. 00:24:58.622                             : en:Chapter 09
  368. 00:28:51.563                             : en:Chapter 10
  369. 00:34:10.089                             : en:Chapter 11
  370. 00:40:28.801                             : en:Chapter 12
  371. 00:46:00.924                             : en:Chapter 13
  372. 00:46:52.226                             : en:Chapter 14
  373. 00:49:17.079                             : en:Chapter 15
  374. 00:51:16.198                             : en:Chapter 16
  375. 00:57:01.876                             : en:Chapter 17
  376. 00:58:36.846                             : en:Chapter 18
  377. 01:02:37.086                             : en:Chapter 19
  378. 01:06:05.753                             : en:Chapter 20
  379. 01:09:00.469                             : en:Chapter 21
  380. 01:16:52.107                             : en:Chapter 22
  381. 01:22:18.558                             : en:Chapter 23
  382. 01:25:29.582                             : en:Chapter 24
  383. 01:31:41.120                             : en:Chapter 25
  384. 01:34:03.804                             : en:Chapter 26
  385. 01:35:48.576                             : en:Chapter 27
  386. 01:39:30.547                             : en:Chapter 28
  387. 01:43:49.806                             : en:Chapter 29
  388. 01:49:26.059                             : en:Chapter 30
  389. 01:54:24.440                             : en:Chapter 31
  390. 01:58:44.617                             : en:Chapter 32
  391. 02:01:09.553                             : en:Chapter 33
  392. 02:05:29.980                             : en:Chapter 34
  393. 02:07:32.561                             : en:Chapter 35
  394. 02:10:23.482                             : en:Chapter 36
  395. 02:12:10.047                             : en:Chapter 37
  396. 02:15:03.345                             : en:Chapter 38
  397. 02:18:56.745                             : en:Chapter 39
  398. 02:21:16.301                             : en:Chapter 40
复制代码










                                       
                                       

                                       
                                       
                                       




回复

使用道具 举报

懒得打字嘛,点击右侧快捷回复 【右侧内容,后台自定义】
您需要登录后才可以回帖 登录 | 立即加入

本版积分规则

Archiver|小黑屋| 蓝光电影网 |网站地图

Copyright © 2021 Comsenz Inc. Powered by 蓝光电影网

蓝光电影网

本站内容由用户自主分享和转载自互联网,转载目的在于传递更多信息,并不代表本网赞同其观点和对其真实性负责。

如有侵权、违反国家法律政策行为,请联系我们,我们会第一时间及时清除和处理!

举报反馈邮箱:4k1080.com@gmail.com

快速回复 返回顶部 返回列表