找回密码

查看: 1068|回复: 1

[2160p] X战警:黑凤凰 Dark.Phoenix.2019.iNTERNAL.2160p.UHD.BluRay.X265.10bit.HDR10Plus.TrueHD.7.1.Atmos-JustWatch 15.57GB

[复制链接]
蓝光币
1840
发表于 2019-9-20 21:07:17 | 显示全部楼层 |阅读模式


◎译  名 X战警:黑凤凰 / X-Men: Dark Phoenix / X-Men: Supernova / X战警7 / X战警前传4 / X战警:超新星 / X战警:黑凤凰传奇 / 变种特攻:黑凤凰(港)
◎片  名 Dark Phoenix
◎年  代 2019
◎产  地 美国
◎类  别 行动 / 科幻 / 冒险
◎语  言 英语
◎上映日期 2019-06-06(中国大陆) / 2019-06-07(美国)
◎IMDb评分  6.0/10 from 55231 users
◎IMDb链接  http://www.imdb.com/title/tt6565702
◎豆瓣评分 6.0/10 from 114886 users
◎豆瓣链接 https://movie.douban.com/subject/26667010/
◎片  长 114分钟
◎导  演 西蒙·金伯格 Simon Kinberg
◎编  剧 西蒙·金伯格 Simon Kinberg / 约翰·拜恩 John Byrne / 克里斯·克雷蒙 Chris Claremont / 戴夫·科克勒姆 Dave Cockrum / 杰克·科比 Jack Kirby / 斯坦·李 Stan Lee
◎主  演 苏菲·特纳 Sophie Turner
       詹姆斯·麦卡沃伊 James McAvoy
       迈克尔·法斯宾德 Michael Fassbender
       尼古拉斯·霍尔特 Nicholas Hoult
       泰伊·谢里丹 Tye Sheridan
       杰西卡·查斯坦 Jessica Chastain
       詹妮弗·劳伦斯 Jennifer Lawrence
       柯蒂·斯密特-麦菲 Kodi Smit-McPhee
       亚历山德拉·希普 Alexandra Shipp
       埃文·彼得斯 Evan Peters
       丹尼尔·库德摩尔 Daniel Cudmore
       奥托·艾森度 Ato Essandoh
       伊万·乔尼凯特 Evan Jonigkeit
       莎莫·芳塔娜 Summer Fontana
       斯科特· 谢泼德 Scott Shepherd
       拉马尔·约翰逊 Lamar Johnson
       泰勒·艾略特·伯克 Tyler Elliot Burke
       安德鲁·斯特林 Andrew Stehlin
       朱利安·拜利 Julian Bailey
       Maurizio Terrazzano
       Josh McLaglen
       格雷格·洛 Gregg Lowe
       塞巴斯蒂安·麦克莱恩 Sebastian MacLean
       沙维尔·索特洛 Xavier Sotelo
       Karen Ivany
       奥利维耶·拉玛舒 Olivier Lamarche
       西蒙·阿兰 Simon Alain
       Alexandre Bélanger

◎标  签 X战警 | 漫威 | 科幻 | 美国 | 超级豪杰 | 2019 | 漫画改编 | 行动
◎简  介  
  影片剧情围绕X战警中最受接待成员之一的琴·葛蕾展开,报告她逐步转化为黑凤凰的故事。在一次危及生命的太空救援行动中,琴被奥秘的宇宙气力击中,成为最强大的变种人。尔后琴·葛蕾不但要想法掌控日益增加、极不稳定的气力,更要与自己心里的恶魔抗争,她的失控让全部X战警大师庭四分五裂,也让全部星球堕入扑灭的威胁当中。《X战警:黑凤凰》是迄今为止氛围最严重、感情最丰富的一部《X战警》电影,是《X战警》系列20年来的集大成之作,大师很是熟悉和酷爱的变种人大师庭行将面临最为强大的仇敌——而她恰恰还是他们中的一员。
◎获奖情况  
  第5届豆瓣电影年度榜单(2018)
  最值得期待的外语电影(提名)
  1. Video
  2. ID                                       : 1
  3. Format                                   : HEVC
  4. Format/Info                              : High Efficiency Video Coding
  5. Format profile                           : Main [email protected]@High
  6. HDR format                               : SMPTE ST 2094 App 4, Version 1, HDR10+ Profile A compatible
  7. Codec ID                                 : V_MPEGH/ISO/HEVC
  8. Duration                                 : 1 h 53 min
  9. Bit rate                                 : 13.2 Mb/s
  10. Width                                    : 3 840 pixels
  11. Height                                   : 2 160 pixels
  12. Display aspect ratio                     : 16:9
  13. Frame rate mode                          : Constant
  14. Frame rate                               : 23.976 (24000/1001) FPS
  15. Color space                              : YUV
  16. Chroma subsampling                       : 4:2:0 (Type 2)
  17. Bit depth                                : 10 bits
  18. Bits/(Pixel*Frame)                       : 0.066
  19. Stream size                              : 10.5 GiB (68%)
  20. Writing library                          : x265 3.19c5c9cef2a86:[Windows][GCC 9.1.0][64 bit] 10bit
  21. Encoding settings                        : cpuid=1049583 / frame-threads=6 / numa-pools=32 / wpp / no-pmode / no-pme / no-psnr / no-ssim / log-level=2 / input-csp=1 / input-res=3840x2160 / interlace=0 / total-frames=163902 / level-idc=51 / high-tier=1 / uhd-bd=0 / ref=4 / no-allow-non-conformance / repeat-headers / annexb / aud / hrd / info / hash=0 / no-temporal-layers / no-open-gop / min-keyint=24 / keyint=240 / gop-lookahead=0 / bframes=4 / b-adapt=2 / b-pyramid / bframe-bias=0 / rc-lookahead=25 / lookahead-slices=4 / scenecut=40 / radl=0 / no-splice / no-intra-refresh / ctu=64 / min-cu-size=8 / rect / no-amp / max-tu-size=32 / tu-inter-depth=1 / tu-intra-depth=1 / limit-tu=0 / rdoq-level=2 / dynamic-rd=0.00 / no-ssim-rd / signhide / no-tskip / nr-intra=0 / nr-inter=0 / no-constrained-intra / no-strong-intra-smoothing / max-merge=3 / limit-refs=3 / limit-modes / me=3 / subme=3 / merange=57 / temporal-mvp / weightp / no-weightb / no-analyze-src-pics / deblock=-3:-3 / no-sao / no-sao-non-deblock / rd=4 / no-early-skip / rskip / no-fast-intra / no-tskip-fast / no-cu-lossless / no-b-intra / no-splitrd-skip / rdpenalty=0 / psy-rd=2.00 / psy-rdoq=1.00 / no-rd-refine / no-lossless / cbqpoffs=0 / crqpoffs=0 / rc=crf / crf=14.5 / qcomp=0.60 / qpstep=4 / stats-write=0 / stats-read=0 / vbv-maxrate=160000 / vbv-bufsize=160000 / vbv-init=0.9 / crf-max=0.0 / crf-min=0.0 / ipratio=1.40 / pbratio=1.30 / aq-mode=2 / aq-strength=1.00 / cutree / zone-count=0 / no-strict-cbr / qg-size=32 / no-rc-grain / qpmax=69 / qpmin=0 / no-const-vbv / sar=1 / overscan=0 / videoformat=5 / range=0 / colorprim=9 / transfer=16 / colormatrix=9 / chromaloc=1 / chromaloc-top=2 / chromaloc-bottom=2 / display-window=0 / master-display=G(13250,34500)B(7500,3000)R(34000,16000)WP(15635,16450)L(10000000,50)cll=0,0 / min-luma=0 / max-luma=1023 / log2-max-poc-lsb=8 / vui-timing-info / vui-hrd-info / slices=1 / no-opt-qp-pps / no-opt-ref-list-length-pps / no-multi-pass-opt-rps / scenecut-bias=0.05 / no-opt-cu-delta-qp / no-aq-motion / hdr / hdr-opt / dhdr10-opt / no-idr-recovery-sei / analysis-reuse-level=5 / scale-factor=0 / refine-intra=0 / refine-inter=0 / refine-mv=0 / refine-ctu-distortion=0 / no-limit-sao / ctu-info=0 / no-lowpass-dct / refine-analysis-type=0 / copy-pic=1 / max-ausize-factor=1.0 / no-dynamic-refine / no-single-sei / no-hevc-aq / no-svt / no-field / qp-adaptation-range=1.00
  22. Default                                  : Yes
  23. Forced                                   : No
  24. Color range                              : Limited
  25. Color primaries                          : BT.2020
  26. Transfer characteristics                 : PQ
  27. Matrix coefficients                      : BT.2020 non-constant
  28. Mastering display color primaries        : Display P3
  29. Mastering display luminance              : min: 0.0050 cd/m2, max: 1000 cd/m2
  30. Audio #1
  31. ID                                       : 2
  32. Format                                   : MLP FBA 16-ch
  33. Format/Info                              : Meridian Lossless Packing FBA with 16-channel presentation
  34. Commercial name                          : Dolby TrueHD with Dolby Atmos
  35. Codec ID                                 : A_TRUEHD
  36. Duration                                 : 1 h 53 min
  37. Bit rate mode                            : Variable
  38. Bit rate                                 : 4 775 kb/s
  39. Maximum bit rate                         : 7 464 kb/s
  40. Channel(s)                               : 8 channels
  41. Channel layout                           : L R C LFE Ls Rs Lb Rb
  42. Sampling rate                            : 48.0 kHz
  43. Frame rate                               : 1 200.000 FPS (40 SPF)
  44. Compression mode                         : Lossless
  45. Stream size                              : 3.80 GiB (25%)
  46. Title                                    : Surround 7.1
  47. Language                                 : English
  48. Default                                  : Yes
  49. Forced                                   : No
  50. Number of dynamic objects                : 13
  51. Bed channel count                        : 1 channel
  52. Bed channel configuration                : LFE
  53. Audio #2
  54. ID                                       : 3
  55. Format                                   : AC-3
  56. Format/Info                              : Audio Coding 3
  57. Commercial name                          : Dolby Digital
  58. Codec ID                                 : A_AC3
  59. Duration                                 : 1 h 53 min
  60. Bit rate mode                            : Constant
  61. Bit rate                                 : 640 kb/s
  62. Channel(s)                               : 6 channels
  63. Channel layout                           : L R C LFE Ls Rs
  64. Sampling rate                            : 48.0 kHz
  65. Frame rate                               : 31.250 FPS (1536 SPF)
  66. Bit depth                                : 16 bits
  67. Compression mode                         : Lossy
  68. Stream size                              : 522 MiB (3%)
  69. Title                                    : Surround 5.1
  70. Language                                 : English
  71. Service kind                             : Complete Main
  72. Default                                  : No
  73. Forced                                   : No
  74. Audio #3
  75. ID                                       : 4
  76. Format                                   : AC-3
  77. Format/Info                              : Audio Coding 3
  78. Commercial name                          : Dolby Digital
  79. Codec ID                                 : A_AC3
  80. Duration                                 : 1 h 53 min
  81. Bit rate mode                            : Constant
  82. Bit rate                                 : 448 kb/s
  83. Channel(s)                               : 6 channels
  84. Channel layout                           : L R C LFE Ls Rs
  85. Sampling rate                            : 48.0 kHz
  86. Frame rate                               : 31.250 FPS (1536 SPF)
  87. Bit depth                                : 16 bits
  88. Compression mode                         : Lossy
  89. Stream size                              : 365 MiB (2%)
  90. Title                                    : Surround 5.1
  91. Language                                 : English
  92. Service kind                             : Complete Main
  93. Default                                  : No
  94. Forced                                   : No
  95. Audio #4
  96. ID                                       : 5
  97. Format                                   : AC-3
  98. Format/Info                              : Audio Coding 3
  99. Commercial name                          : Dolby Digital
  100. Codec ID                                 : A_AC3
  101. Duration                                 : 1 h 53 min
  102. Bit rate mode                            : Constant
  103. Bit rate                                 : 224 kb/s
  104. Channel(s)                               : 2 channels
  105. Channel layout                           : L R
  106. Sampling rate                            : 48.0 kHz
  107. Frame rate                               : 31.250 FPS (1536 SPF)
  108. Bit depth                                : 16 bits
  109. Compression mode                         : Lossy
  110. Stream size                              : 183 MiB (1%)
  111. Title                                    : Stereo
  112. Language                                 : English
  113. Service kind                             : Complete Main
  114. Default                                  : No
  115. Forced                                   : No
  116. Text #1
  117. ID                                       : 6
  118. Format                                   : UTF-8
  119. Codec ID                                 : S_TEXT/UTF8
  120. Codec ID/Info                            : UTF-8 Plain Text
  121. Duration                                 : 31 min 20 s
  122. Bit rate                                 : 0 b/s
  123. Count of elements                        : 4
  124. Stream size                              : 168 Bytes (0%)
  125. Title                                    : forced eng srt
  126. Language                                 : English
  127. Default                                  : Yes
  128. Forced                                   : Yes
  129. Text #2
  130. ID                                       : 7
  131. Format                                   : PGS
  132. Muxing mode                              : zlib
  133. Codec ID                                 : S_HDMV/PGS
  134. Codec ID/Info                            : Picture based subtitle format used on BDs/HD-DVDs
  135. Duration                                 : 1 h 5 min
  136. Bit rate                                 : 135 b/s
  137. Count of elements                        : 11
  138. Stream size                              : 64.8 KiB (0%)
  139. Title                                    : forced eng
  140. Language                                 : English
  141. Default                                  : No
  142. Forced                                   : No
  143. Text #3
  144. ID                                       : 8
  145. Format                                   : PGS
  146. Muxing mode                              : zlib
  147. Codec ID                                 : S_HDMV/PGS
  148. Codec ID/Info                            : Picture based subtitle format used on BDs/HD-DVDs
  149. Duration                                 : 1 h 53 min
  150. Bit rate                                 : 28.1 kb/s
  151. Count of elements                        : 2830
  152. Stream size                              : 22.9 MiB (0%)
  153. Language                                 : English
  154. Default                                  : No
  155. Forced                                   : No
  156. Text #4
  157. ID                                       : 9
  158. Format                                   : PGS
  159. Muxing mode                              : zlib
  160. Codec ID                                 : S_HDMV/PGS
  161. Codec ID/Info                            : Picture based subtitle format used on BDs/HD-DVDs
  162. Duration                                 : 1 h 53 min
  163. Bit rate                                 : 75.7 kb/s
  164. Count of elements                        : 4362
  165. Stream size                              : 61.5 MiB (0%)
  166. Language                                 : English
  167. Default                                  : No
  168. Forced                                   : No
  169. Menu
  170. 00:00:00.000                             : en:Chapter 01
  171. 00:03:28.541                             : en:Chapter 02
  172. 00:07:33.995                             : en:Chapter 03
  173. 00:11:41.867                             : en:Chapter 04
  174. 00:15:43.776                             : en:Chapter 05
  175. 00:18:37.074                             : en:Chapter 06
  176. 00:25:24.147                             : en:Chapter 07
  177. 00:31:40.023                             : en:Chapter 08
  178. 00:34:18.973                             : en:Chapter 09
  179. 00:40:07.113                             : en:Chapter 10
  180. 00:44:35.756                             : en:Chapter 11
  181. 00:49:07.319                             : en:Chapter 12
  182. 00:55:37.834                             : en:Chapter 13
  183. 00:58:57.075                             : en:Chapter 14
  184. 01:02:55.521                             : en:Chapter 15
  185. 01:10:39.777                             : en:Chapter 16
  186. 01:13:42.084                             : en:Chapter 17
  187. 01:19:32.893                             : en:Chapter 18
  188. 01:22:35.367                             : en:Chapter 19
  189. 01:25:48.351                             : en:Chapter 20
  190. 01:30:37.849                             : en:Chapter 21
  191. 01:32:47.603                             : en:Chapter 22
  192. 01:37:59.290                             : en:Chapter 23
  193. 01:45:00.711                             : en:Chapter 24
复制代码






                                       
                                       

                                       
                                       
                                       




X战警:黑凤凰 Dark.Phoenix.2019.iNTERNAL.2160p.UHD.BluRay.X265.10bit.HDR10Plus.TrueHD.7.1.Atmos-JustWatch 15.57GB

Dark.Phoenix.2019.iNTERNAL.2160p.UHD.BluRay.X265.10bit.HDR10Plus.TrueHD.7.1.Atmo.torrent

78.62 KB, 下载次数: 60, 下载积分: 蓝光币 -2

回复

使用道具 举报

蓝光币
28
发表于 2022-6-8 15:23:29 | 显示全部楼层
这片不错,再看一遍
回复

使用道具 举报

懒得打字嘛,点击右侧快捷回复 【右侧内容,后台自定义】
您需要登录后才可以回帖 登录 | 立即加入

本版积分规则

Copyright © 2024 Comsenz Inc. Powered by 蓝光电影网

本站内容由用户自主分享和转载自互联网,转载目的在于传递更多信息,并不代表本网赞同其观点和对其真实性负责。

如有侵权、违反国家法律政策行为,请联系我们,我们会第一时间及时清除和处理!

举报反馈邮箱:4k1080.com@gmail.com

快速回复 返回顶部 返回列表