找回密码

查看: 912|回复: 0

[2160p] 深夜秀/夜深时 Late.Night.2019.2160p.AMZN.WEBRip.DDP5.1.x264-NTb 33.04GB

[复制链接]
蓝光币
1840
发表于 2019-9-13 07:49:02 | 显示全部楼层 |阅读模式


◎译  名 深夜秀 / 夜深时
◎片  名 Late Night
◎年  代 2019
◎产  地 美国
◎类  别 剧情 / 笑剧
◎语  言 英语
◎上映日期 2019-01-25(圣丹斯电影节) / 2019-06-07(美国)
◎IMDb评分  6.5/10 from 4780 users
◎IMDb链接  http://www.imdb.com/title/tt6107548
◎豆瓣评分 7.0/10 from 265 users
◎豆瓣链接 https://movie.douban.com/subject/27109401/
◎片  长 102分钟(圣丹斯电影节)
◎导  演 尼萨·加纳特 Nisha Ganatra
◎编  剧 敏迪·卡灵 Mindy Kaling
◎主  演 艾玛·汤普森 Emma Thompson
       敏迪·卡灵 Mindy Kaling
       约翰·利思戈 John Lithgow
       休·丹西 Hugh Dancy
       伊克·巴里霍尔兹 Ike Barinholtz
       梅歌林·艾奇坤沃克 Megalyn Echikunwoke
       艾米·莱安 Amy Ryan
       马克斯·凯塞拉 Max Casella
       保罗·沃尔特·豪泽 Paul Walter Hauser
       瑞德·斯科特 Reid Scott
       丹尼斯·欧哈拉 Denis O'Hare
       费斯·洛根 Faith Logan
       约翰·厄尔利 John Early
       桃乐丝·麦卡锡 Doris McCarthy
       卢克·斯拉特里 Luke Slattery
       格里高利·迈克尔 Gregory Mikell
       Rupak Ginn

◎标  签 笑剧 | 女性 | EmmaThompson | 美国 | 2019 | 脱口秀 | 电影 | 艾玛·汤普森
◎简  介  
  艾玛·汤普森、敏迪·卡灵将参演30WEST、FilmNation打造的笑剧[夜深时](Late Night,暂译)。敏迪·卡灵还操刀剧本,尼萨·加纳特(《高玩救未来》)执导。报告一个行将落空工作的深夜脱口秀主持人(汤普森饰),当她招聘女性作家(卡灵饰)时,她的工作和生活似乎有了起色。该片将于四月展开拍摄。
  1. Video
  2. ID                                       : 1
  3. Format                                   : AVC
  4. Format/Info                              : Advanced Video Codec
  5. Format profile                           : [email protected]
  6. Format settings                          : CABAC / 5 Ref Frames
  7. Format settings, CABAC                   : Yes
  8. Format settings, Reference frames        : 5 frames
  9. Codec ID                                 : V_MPEG4/ISO/AVC
  10. Duration                                 : 1 h 42 min
  11. Bit rate                                 : 45.7 Mb/s
  12. Width                                    : 3 836 pixels
  13. Height                                   : 2 080 pixels
  14. Display aspect ratio                     : 1.85:1
  15. Frame rate mode                          : Constant
  16. Frame rate                               : 23.976 (24000/1001) FPS
  17. Color space                              : YUV
  18. Chroma subsampling                       : 4:2:0
  19. Bit depth                                : 8 bits
  20. Scan type                                : Progressive
  21. Bits/(Pixel*Frame)                       : 0.239
  22. Stream size                              : 32.6 GiB (99%)
  23. Writing library                          : x264 core 158 r2984+47 456d10a t_mod_New [[email protected] X86_64]
  24. Encoding settings                        : cabac=1 / ref=5 / deblock=1:-3:-3 / analyse=0x3:0x133 / me=umh / subme=10 / psy=1 / fade_compensate=0.00 / psy_rd=1.00:0.15 / mixed_ref=1 / me_range=48 / chroma_me=1 / trellis=2 / 8x8dct=1 / cqm=0 / deadzone=21,11 / fast_pskip=0 / chroma_qp_offset=-3 / threads=12 / lookahead_threads=2 / sliced_threads=0 / nr=0 / decimate=0 / interlaced=0 / bluray_compat=0 / constrained_intra=0 / fgo=0 / bframes=8 / b_pyramid=2 / b_adapt=2 / b_bias=0 / direct=3 / weightb=1 / open_gop=0 / weightp=2 / keyint=250 / keyint_min=23 / scenecut=40 / intra_refresh=0 / rc=crf / mbtree=0 / crf=19.0000 / qcomp=0.60 / qpmin=0:0:0 / qpmax=69:69:69 / qpstep=4 / ip_ratio=1.30 / pb_ratio=1.20 / aq=3:0.80 / aq-sensitivity=10.00 / aq-factor=1.00:1.00:1.00 / aq2=0 / aq3=0
  25. Language                                 : English
  26. Default                                  : Yes
  27. Forced                                   : No
  28. Audio
  29. ID                                       : 2
  30. Format                                   : E-AC-3
  31. Format/Info                              : Enhanced AC-3
  32. Commercial name                          : Dolby Digital Plus
  33. Codec ID                                 : A_EAC3
  34. Duration                                 : 1 h 42 min
  35. Bit rate mode                            : Constant
  36. Bit rate                                 : 640 kb/s
  37. Channel(s)                               : 6 channels
  38. Channel layout                           : L R C LFE Ls Rs
  39. Sampling rate                            : 48.0 kHz
  40. Frame rate                               : 31.250 FPS (1536 SPF)
  41. Compression mode                         : Lossy
  42. Stream size                              : 468 MiB (1%)
  43. Language                                 : English
  44. Service kind                             : Complete Main
  45. Default                                  : Yes
  46. Forced                                   : No
  47. Text
  48. ID                                       : 3
  49. Format                                   : UTF-8
  50. Codec ID                                 : S_TEXT/UTF8
  51. Codec ID/Info                            : UTF-8 Plain Text
  52. Duration                                 : 1 h 41 min
  53. Bit rate                                 : 110 b/s
  54. Count of elements                        : 2464
  55. Stream size                              : 82.4 KiB (0%)
  56. Title                                    : SDH
  57. Language                                 : English
  58. Default                                  : No
  59. Forced                                   : No
  60. Menu
  61. 00:00:00.000                             : en:Studio Logo
  62. 00:00:44.000                             : en:Katherine accepts an honor award
  63. 00:03:06.000                             : en:Time for tough conversations
  64. 00:05:51.000                             : en:Molly interviews for her dream job
  65. 00:10:33.000                             : en:Katherine gets some bad news
  66. 00:14:14.000                             : en:They can\'t fire you if they love you
  67. 00:16:56.000                             : en:Listening to some tough feedback
  68. 00:22:14.000                             : en:The real world of TV writing
  69. 00:26:04.000                             : en:The writer\'s pitch their ideas
  70. 00:29:43.000                             : en:You\'re a writer, so write
  71. 00:31:53.000                             : en:Molly pitches her joke to Katherine
  72. 00:36:53.000                             : en:Charlie\'s standup routine
  73. 00:39:52.000                             : en:Time to hire a publicist
  74. 00:41:06.000                             : en:A party to change perceptions
  75. 00:48:45.000                             : en:A late night confrontation
  76. 00:49:57.000                             : en:Time for brutal honesty
  77. 00:57:50.000                             : en:Shaking up the show
  78. 01:02:40.000                             : en:Molly and Katherine share a moment
  79. 01:05:38.000                             : en:Changing the way things work
  80. 01:10:26.000                             : en:Tough conversations and hard realizations
  81. 01:17:55.000                             : en:Tom offers Molly some support
  82. 01:19:37.000                             : en:Time to move forward
  83. 01:21:50.000                             : en:A genuine thank you
  84. 01:23:24.000                             : en:Giving up is never easy
  85. 01:26:31.000                             : en:Confronting the truth
  86. 01:31:06.000                             : en:Katherine realizes that she needs Molly
  87. 01:35:13.000                             : en:What a difference a year can make
  88. 01:36:54.000                             : en:Title Sequence
  89. 01:36:58.000                             : en:End Credits
复制代码






                                       
                                       

                                       
                                       
                                       




回复

使用道具 举报

懒得打字嘛,点击右侧快捷回复 【右侧内容,后台自定义】
您需要登录后才可以回帖 登录 | 立即加入

本版积分规则

Copyright © 2024 Comsenz Inc. Powered by 蓝光电影网

本站内容由用户自主分享和转载自互联网,转载目的在于传递更多信息,并不代表本网赞同其观点和对其真实性负责。

如有侵权、违反国家法律政策行为,请联系我们,我们会第一时间及时清除和处理!

举报反馈邮箱:4k1080.com@gmail.com

快速回复 返回顶部 返回列表