找回密码

查看: 1107|回复: 0

[UHD.HEVC] 地狱男爵/地狱小子 Hellboy.2004.DC.2160p.BluRay.REMUX.HEVC.DTS-HD.MA.TrueHD.7.1.Atmos-FGT 53.46GB

[复制链接]
蓝光币
1840
发表于 2019-10-12 08:30:24 | 显示全部楼层 |阅读模式


◎译  名 天堂男爵 / 天堂小子 / 天堂怪客 / 天堂男孩 / 天魔特攻 / 炎火奇侠
◎片  名 Hellboy
◎年  代 2004
◎产  地 美国
◎类  别 行动 / 奇异 / 冒险
◎语  言 英语 / 俄语
◎上映日期 2004-04-02(美国)
◎IMDb评分  6.8/10 from 294044 users
◎IMDb链接  https://www.imdb.com/title/tt0167190
◎豆瓣评分 6.9/10 from 55929 users
◎豆瓣链接 https://movie.douban.com/subject/1308851/
◎片  长 122分钟
◎导  演 Guillermo del Toro
◎编  剧 Guillermo del Toro / Peter Briggs / 迈克·米格诺拉 Mike Mignola
◎主  演 朗·普尔曼 Ron Perlman
       约翰·赫特 John Hurt
       塞尔玛·布莱尔 Selma Blair
       鲁珀特·伊文斯 Rupert Evans
       卡瑞尔·罗登 Karel Roden
       杰弗里·塔伯 Jeffrey Tambor
       道格·琼斯 Doug Jones
       拉迪斯拉夫·伯兰 Ladislav Beran
       Biddy Hodson
       克里·约翰逊 Corey Johnson
       凯文·特诺 Kevin Trainor
       布莱恩·卡斯佩 Brian Caspe
       詹姆斯·巴伯森  James Babson
       安格斯·麦金尼斯 Angus MacInnes
       吉姆·霍威克 Jim Howick
       罗里·科普斯 Rory Copus

◎标  签 科幻 | 美国 | 魔幻 | 漫画改编 | 行动 | 美国电影 | 奇异 | 2004
◎简  介  
  二战末期,溃败的德军为了改变大势,居然找来了一个邪恶的巫师,诡计操纵他呼唤出天堂男爵,打败盟军。幸亏盟军的突击队在他们停止仪式时实时赶到,顺遂挫败了他们的诡计,但这时辰天堂男爵——1个婴儿已经被呼唤出来了,盟军见此只好收养了他。教授布鲁姆(约翰?赫特 John Hurt  饰)是天堂男爵(朗?普尔曼 Ron Perlman 饰)的养父,他用自己的善良循循教导着男爵,男爵则操纵自己刀枪不入的身材和通天本事为美国政府完成了多项特种使命。但是,阴晦邪恶的赋性还是一向潜藏在男爵的心底,终极人类的善良能否克服来自天堂的邪恶?
  1. Video
  2. ID                                       : 1
  3. Format                                   : HEVC
  4. Format/Info                              : High Efficiency Video Coding
  5. Format profile                           : Main [email protected]@High
  6. HDR format                               : SMPTE ST 2086, HDR10 compatible
  7. Codec ID                                 : V_MPEGH/ISO/HEVC
  8. Duration                                 : 2 h 12 min
  9. Bit rate                                 : 48.7 Mb/s
  10. Width                                    : 3 840 pixels
  11. Height                                   : 2 160 pixels
  12. Display aspect ratio                     : 16:9
  13. Frame rate mode                          : Constant
  14. Frame rate                               : 23.976 (24000/1001) FPS
  15. Color space                              : YUV
  16. Chroma subsampling                       : 4:2:0 (Type 2)
  17. Bit depth                                : 10 bits
  18. Bits/(Pixel*Frame)                       : 0.245
  19. Stream size                              : 45.1 GiB (84%)
  20. Title                                    : Hellboy.2004.DC.2160p.BluRay.REMUX.HEVC.DTS-HD.MA.TrueHD.7.1.Atmos-FGT
  21. Language                                 : English
  22. Default                                  : No
  23. Forced                                   : No
  24. Color range                              : Limited
  25. Color primaries                          : BT.2020
  26. Transfer characteristics                 : PQ
  27. Matrix coefficients                      : BT.2020 non-constant
  28. Mastering display color primaries        : Display P3
  29. Mastering display luminance              : min: 0.0050 cd/m2, max: 4000 cd/m2
  30. Maximum Content Light Level              : 9121 cd/m2
  31. Maximum Frame-Average Light Level        : 1265 cd/m2
  32. Audio #1
  33. ID                                       : 2
  34. Format                                   : MLP FBA 16-ch
  35. Format/Info                              : Meridian Lossless Packing FBA with 16-channel presentation
  36. Commercial name                          : Dolby TrueHD with Dolby Atmos
  37. Codec ID                                 : A_TRUEHD
  38. Duration                                 : 2 h 12 min
  39. Bit rate mode                            : Variable
  40. Bit rate                                 : 3 176 kb/s
  41. Maximum bit rate                         : 3 708 kb/s
  42. Channel(s)                               : 8 channels
  43. Channel layout                           : L R C LFE Ls Rs Lb Rb
  44. Sampling rate                            : 48.0 kHz
  45. Frame rate                               : 1 200.000 FPS (40 SPF)
  46. Compression mode                         : Lossless
  47. Stream size                              : 2.94 GiB (5%)
  48. Title                                    : Hellboy.2004.DC.2160p.BluRay.REMUX.HEVC.DTS-HD.MA.TrueHD.7.1.Atmos-FGT
  49. Language                                 : English
  50. Default                                  : Yes
  51. Forced                                   : No
  52. Number of dynamic objects                : 11
  53. Bed channel count                        : 1 channel
  54. Bed channel configuration                : LFE
  55. Audio #2
  56. ID                                       : 3
  57. Format                                   : DTS XLL
  58. Format/Info                              : Digital Theater Systems
  59. Commercial name                          : DTS-HD Master Audio
  60. Codec ID                                 : A_DTS
  61. Duration                                 : 2 h 12 min
  62. Bit rate mode                            : Variable
  63. Bit rate                                 : 3 818 kb/s
  64. Channel(s)                               : 8 channels
  65. Channel layout                           : C L R LFE Lb Rb Lss Rss
  66. Sampling rate                            : 48.0 kHz
  67. Frame rate                               : 93.750 FPS (512 SPF)
  68. Bit depth                                : 24 bits
  69. Compression mode                         : Lossless
  70. Stream size                              : 3.53 GiB (7%)
  71. Title                                    : Hellboy.2004.DC.2160p.BluRay.REMUX.HEVC.DTS-HD.MA.TrueHD.7.1.Atmos-FGT
  72. Language                                 : English
  73. Default                                  : No
  74. Forced                                   : No
  75. Audio #3
  76. ID                                       : 4
  77. Format                                   : AC-3
  78. Format/Info                              : Audio Coding 3
  79. Commercial name                          : Dolby Digital
  80. Codec ID                                 : A_AC3
  81. Duration                                 : 2 h 12 min
  82. Bit rate mode                            : Constant
  83. Bit rate                                 : 640 kb/s
  84. Channel(s)                               : 6 channels
  85. Channel layout                           : L R C LFE Ls Rs
  86. Sampling rate                            : 48.0 kHz
  87. Frame rate                               : 31.250 FPS (1536 SPF)
  88. Bit depth                                : 16 bits
  89. Compression mode                         : Lossy
  90. Stream size                              : 606 MiB (1%)
  91. Title                                    : Hellboy.2004.DC.2160p.BluRay.REMUX.HEVC.DTS-HD.MA.TrueHD.7.1.Atmos-FGT
  92. Language                                 : English
  93. Service kind                             : Complete Main
  94. Default                                  : No
  95. Forced                                   : No
  96. Audio #4
  97. ID                                       : 5
  98. Format                                   : AC-3
  99. Format/Info                              : Audio Coding 3
  100. Commercial name                          : Dolby Digital
  101. Codec ID                                 : A_AC3
  102. Duration                                 : 2 h 12 min
  103. Bit rate mode                            : Constant
  104. Bit rate                                 : 448 kb/s
  105. Channel(s)                               : 6 channels
  106. Channel layout                           : L R C LFE Ls Rs
  107. Sampling rate                            : 48.0 kHz
  108. Frame rate                               : 31.250 FPS (1536 SPF)
  109. Bit depth                                : 16 bits
  110. Compression mode                         : Lossy
  111. Stream size                              : 424 MiB (1%)
  112. Title                                    : Hellboy.2004.DC.2160p.BluRay.REMUX.HEVC.DTS-HD.MA.TrueHD.7.1.Atmos-FGT
  113. Language                                 : German
  114. Service kind                             : Complete Main
  115. Default                                  : No
  116. Forced                                   : No
  117. Audio #5
  118. ID                                       : 6
  119. Format                                   : AC-3
  120. Format/Info                              : Audio Coding 3
  121. Commercial name                          : Dolby Digital
  122. Codec ID                                 : A_AC3
  123. Duration                                 : 2 h 12 min
  124. Bit rate mode                            : Constant
  125. Bit rate                                 : 448 kb/s
  126. Channel(s)                               : 6 channels
  127. Channel layout                           : L R C LFE Ls Rs
  128. Sampling rate                            : 48.0 kHz
  129. Frame rate                               : 31.250 FPS (1536 SPF)
  130. Bit depth                                : 16 bits
  131. Compression mode                         : Lossy
  132. Stream size                              : 424 MiB (1%)
  133. Title                                    : Hellboy.2004.DC.2160p.BluRay.REMUX.HEVC.DTS-HD.MA.TrueHD.7.1.Atmos-FGT
  134. Language                                 : Thai
  135. Service kind                             : Complete Main
  136. Default                                  : No
  137. Forced                                   : No
  138. Audio #6
  139. ID                                       : 7
  140. Format                                   : AC-3
  141. Format/Info                              : Audio Coding 3
  142. Commercial name                          : Dolby Digital
  143. Codec ID                                 : A_AC3
  144. Duration                                 : 2 h 12 min
  145. Bit rate mode                            : Constant
  146. Bit rate                                 : 192 kb/s
  147. Channel(s)                               : 2 channels
  148. Channel layout                           : L R
  149. Sampling rate                            : 48.0 kHz
  150. Frame rate                               : 31.250 FPS (1536 SPF)
  151. Bit depth                                : 16 bits
  152. Compression mode                         : Lossy
  153. Stream size                              : 182 MiB (0%)
  154. Title                                    : Hellboy.2004.DC.2160p.BluRay.REMUX.HEVC.DTS-HD.MA.TrueHD.7.1.Atmos-FGT
  155. Language                                 : English
  156. Service kind                             : Complete Main
  157. Default                                  : No
  158. Forced                                   : No
  159. Text #1
  160. ID                                       : 8
  161. Format                                   : UTF-8
  162. Codec ID                                 : S_TEXT/UTF8
  163. Codec ID/Info                            : UTF-8 Plain Text
  164. Duration                                 : 3 min 50 s
  165. Bit rate                                 : 3 b/s
  166. Count of elements                        : 4
  167. Stream size                              : 95.0 Bytes (0%)
  168. Title                                    : English-FORCED-SRT
  169. Language                                 : English
  170. Default                                  : Yes
  171. Forced                                   : Yes
  172. Text #2
  173. ID                                       : 9
  174. Format                                   : UTF-8
  175. Codec ID                                 : S_TEXT/UTF8
  176. Codec ID/Info                            : UTF-8 Plain Text
  177. Duration                                 : 2 h 5 min
  178. Bit rate                                 : 34 b/s
  179. Count of elements                        : 1181
  180. Stream size                              : 31.8 KiB (0%)
  181. Title                                    : English-SRT
  182. Language                                 : English
  183. Default                                  : No
  184. Forced                                   : No
  185. Text #3
  186. ID                                       : 10
  187. Format                                   : PGS
  188. Muxing mode                              : zlib
  189. Codec ID                                 : S_HDMV/PGS
  190. Codec ID/Info                            : Picture based subtitle format used on BDs/HD-DVDs
  191. Duration                                 : 2 h 5 min
  192. Bit rate                                 : 20.6 kb/s
  193. Count of elements                        : 2378
  194. Stream size                              : 18.5 MiB (0%)
  195. Title                                    : English-PGS
  196. Language                                 : English
  197. Default                                  : No
  198. Forced                                   : No
  199. Text #4
  200. ID                                       : 11
  201. Format                                   : PGS
  202. Muxing mode                              : zlib
  203. Codec ID                                 : S_HDMV/PGS
  204. Codec ID/Info                            : Picture based subtitle format used on BDs/HD-DVDs
  205. Duration                                 : 3 min 50 s
  206. Bit rate                                 : 2 044 b/s
  207. Count of elements                        : 8
  208. Stream size                              : 57.5 KiB (0%)
  209. Title                                    : English-FORCED-PGS
  210. Language                                 : English
  211. Default                                  : No
  212. Forced                                   : No
  213. Text #5
  214. ID                                       : 12
  215. Format                                   : PGS
  216. Muxing mode                              : zlib
  217. Codec ID                                 : S_HDMV/PGS
  218. Codec ID/Info                            : Picture based subtitle format used on BDs/HD-DVDs
  219. Duration                                 : 2 h 7 min
  220. Bit rate                                 : 25.5 kb/s
  221. Count of elements                        : 3000
  222. Stream size                              : 23.2 MiB (0%)
  223. Title                                    : English-SDH-PGS
  224. Language                                 : English
  225. Default                                  : No
  226. Forced                                   : No
  227. Text #6
  228. ID                                       : 13
  229. Format                                   : PGS
  230. Muxing mode                              : zlib
  231. Codec ID                                 : S_HDMV/PGS
  232. Codec ID/Info                            : Picture based subtitle format used on BDs/HD-DVDs
  233. Duration                                 : 2 h 5 min
  234. Bit rate                                 : 11.0 kb/s
  235. Count of elements                        : 2450
  236. Stream size                              : 9.88 MiB (0%)
  237. Title                                    : Arabic-PGS
  238. Language                                 : Arabic
  239. Default                                  : No
  240. Forced                                   : No
  241. Text #7
  242. ID                                       : 14
  243. Format                                   : PGS
  244. Muxing mode                              : zlib
  245. Codec ID                                 : S_HDMV/PGS
  246. Codec ID/Info                            : Picture based subtitle format used on BDs/HD-DVDs
  247. Duration                                 : 42 s 63 ms
  248. Bit rate                                 : 2 896 b/s
  249. Count of elements                        : 4
  250. Stream size                              : 14.9 KiB (0%)
  251. Title                                    : Arabic-FORCED-PGS
  252. Language                                 : Arabic
  253. Default                                  : No
  254. Forced                                   : No
  255. Text #8
  256. ID                                       : 15
  257. Format                                   : PGS
  258. Muxing mode                              : zlib
  259. Codec ID                                 : S_HDMV/PGS
  260. Codec ID/Info                            : Picture based subtitle format used on BDs/HD-DVDs
  261. Duration                                 : 2 h 5 min
  262. Bit rate                                 : 18.8 kb/s
  263. Count of elements                        : 2151
  264. Stream size                              : 16.9 MiB (0%)
  265. Title                                    : Bulgarian-PGS
  266. Language                                 : Bulgarian
  267. Default                                  : No
  268. Forced                                   : No
  269. Text #9
  270. ID                                       : 16
  271. Format                                   : PGS
  272. Muxing mode                              : zlib
  273. Codec ID                                 : S_HDMV/PGS
  274. Codec ID/Info                            : Picture based subtitle format used on BDs/HD-DVDs
  275. Duration                                 : 2 h 5 min
  276. Bit rate                                 : 17.4 kb/s
  277. Count of elements                        : 2452
  278. Stream size                              : 15.6 MiB (0%)
  279. Title                                    : Chinese-PGS
  280. Language                                 : Chinese
  281. Default                                  : No
  282. Forced                                   : No
  283. Text #10
  284. ID                                       : 17
  285. Format                                   : PGS
  286. Muxing mode                              : zlib
  287. Codec ID                                 : S_HDMV/PGS
  288. Codec ID/Info                            : Picture based subtitle format used on BDs/HD-DVDs
  289. Duration                                 : 42 s 63 ms
  290. Bit rate                                 : 4 882 b/s
  291. Count of elements                        : 4
  292. Stream size                              : 25.1 KiB (0%)
  293. Title                                    : Chinese-FORCED-PGS
  294. Language                                 : Chinese
  295. Default                                  : No
  296. Forced                                   : No
  297. Text #11
  298. ID                                       : 18
  299. Format                                   : PGS
  300. Muxing mode                              : zlib
  301. Codec ID                                 : S_HDMV/PGS
  302. Codec ID/Info                            : Picture based subtitle format used on BDs/HD-DVDs
  303. Duration                                 : 2 h 5 min
  304. Bit rate                                 : 19.8 kb/s
  305. Count of elements                        : 2408
  306. Stream size                              : 17.8 MiB (0%)
  307. Title                                    : Czech-PGS
  308. Language                                 : Czech
  309. Default                                  : No
  310. Forced                                   : No
  311. Text #12
  312. ID                                       : 19
  313. Format                                   : PGS
  314. Muxing mode                              : zlib
  315. Codec ID                                 : S_HDMV/PGS
  316. Codec ID/Info                            : Picture based subtitle format used on BDs/HD-DVDs
  317. Duration                                 : 1 h 40 min
  318. Bit rate                                 : 858 b/s
  319. Count of elements                        : 70
  320. Stream size                              : 631 KiB (0%)
  321. Title                                    : Czech-FORCED-PGS
  322. Language                                 : Czech
  323. Default                                  : No
  324. Forced                                   : No
  325. Text #13
  326. ID                                       : 20
  327. Format                                   : PGS
  328. Muxing mode                              : zlib
  329. Codec ID                                 : S_HDMV/PGS
  330. Codec ID/Info                            : Picture based subtitle format used on BDs/HD-DVDs
  331. Duration                                 : 2 h 11 min
  332. Bit rate                                 : 19.8 kb/s
  333. Count of elements                        : 2352
  334. Stream size                              : 18.6 MiB (0%)
  335. Title                                    : Danish-PGS
  336. Language                                 : Danish
  337. Default                                  : No
  338. Forced                                   : No
  339. Text #14
  340. ID                                       : 21
  341. Format                                   : PGS
  342. Muxing mode                              : zlib
  343. Codec ID                                 : S_HDMV/PGS
  344. Codec ID/Info                            : Picture based subtitle format used on BDs/HD-DVDs
  345. Duration                                 : 2 h 5 min
  346. Bit rate                                 : 18.9 kb/s
  347. Count of elements                        : 1777
  348. Stream size                              : 17.0 MiB (0%)
  349. Title                                    : Estonian-PGS
  350. Language                                 : Estonian
  351. Default                                  : No
  352. Forced                                   : No
  353. Text #15
  354. ID                                       : 22
  355. Format                                   : PGS
  356. Muxing mode                              : zlib
  357. Codec ID                                 : S_HDMV/PGS
  358. Codec ID/Info                            : Picture based subtitle format used on BDs/HD-DVDs
  359. Duration                                 : 2 h 11 min
  360. Bit rate                                 : 18.1 kb/s
  361. Count of elements                        : 1932
  362. Stream size                              : 17.1 MiB (0%)
  363. Title                                    : Finnish-PGS
  364. Language                                 : Finnish
  365. Default                                  : No
  366. Forced                                   : No
  367. Text #16
  368. ID                                       : 23
  369. Format                                   : PGS
  370. Muxing mode                              : zlib
  371. Codec ID                                 : S_HDMV/PGS
  372. Codec ID/Info                            : Picture based subtitle format used on BDs/HD-DVDs
  373. Duration                                 : 2 h 5 min
  374. Bit rate                                 : 22.4 kb/s
  375. Count of elements                        : 2450
  376. Stream size                              : 20.1 MiB (0%)
  377. Title                                    : German-PGS
  378. Language                                 : German
  379. Default                                  : No
  380. Forced                                   : No
  381. Text #17
  382. ID                                       : 24
  383. Format                                   : PGS
  384. Muxing mode                              : zlib
  385. Codec ID                                 : S_HDMV/PGS
  386. Codec ID/Info                            : Picture based subtitle format used on BDs/HD-DVDs
  387. Duration                                 : 1 h 40 min
  388. Bit rate                                 : 958 b/s
  389. Count of elements                        : 74
  390. Stream size                              : 705 KiB (0%)
  391. Title                                    : German-FORCED-PGS
  392. Language                                 : German
  393. Default                                  : No
  394. Forced                                   : No
  395. Text #18
  396. ID                                       : 25
  397. Format                                   : PGS
  398. Muxing mode                              : zlib
  399. Codec ID                                 : S_HDMV/PGS
  400. Codec ID/Info                            : Picture based subtitle format used on BDs/HD-DVDs
  401. Duration                                 : 2 h 5 min
  402. Bit rate                                 : 21.5 kb/s
  403. Count of elements                        : 2391
  404. Stream size                              : 19.3 MiB (0%)
  405. Title                                    : Greek-PGS
  406. Language                                 : Greek
  407. Default                                  : No
  408. Forced                                   : No
  409. Text #19
  410. ID                                       : 26
  411. Format                                   : PGS
  412. Muxing mode                              : zlib
  413. Codec ID                                 : S_HDMV/PGS
  414. Codec ID/Info                            : Picture based subtitle format used on BDs/HD-DVDs
  415. Duration                                 : 2 h 5 min
  416. Bit rate                                 : 16.4 kb/s
  417. Count of elements                        : 2432
  418. Stream size                              : 14.8 MiB (0%)
  419. Title                                    : Hebrew-PGS
  420. Language                                 : Hebrew
  421. Default                                  : No
  422. Forced                                   : No
  423. Text #20
  424. ID                                       : 27
  425. Format                                   : PGS
  426. Muxing mode                              : zlib
  427. Codec ID                                 : S_HDMV/PGS
  428. Codec ID/Info                            : Picture based subtitle format used on BDs/HD-DVDs
  429. Duration                                 : 2 h 5 min
  430. Bit rate                                 : 19.0 kb/s
  431. Count of elements                        : 2404
  432. Stream size                              : 17.1 MiB (0%)
  433. Title                                    : Hungarian-PGS
  434. Language                                 : Hungarian
  435. Default                                  : No
  436. Forced                                   : No
  437. Text #21
  438. ID                                       : 28
  439. Format                                   : PGS
  440. Muxing mode                              : zlib
  441. Codec ID                                 : S_HDMV/PGS
  442. Codec ID/Info                            : Picture based subtitle format used on BDs/HD-DVDs
  443. Duration                                 : 1 min 16 s
  444. Bit rate                                 : 4 097 b/s
  445. Count of elements                        : 4
  446. Stream size                              : 38.5 KiB (0%)
  447. Title                                    : Hungarian-FORCED-PGS
  448. Language                                 : Hungarian
  449. Default                                  : No
  450. Forced                                   : No
  451. Text #22
  452. ID                                       : 29
  453. Format                                   : PGS
  454. Muxing mode                              : zlib
  455. Codec ID                                 : S_HDMV/PGS
  456. Codec ID/Info                            : Picture based subtitle format used on BDs/HD-DVDs
  457. Duration                                 : 2 h 5 min
  458. Bit rate                                 : 21.0 kb/s
  459. Count of elements                        : 2344
  460. Stream size                              : 18.9 MiB (0%)
  461. Title                                    : Icelandic-PGS
  462. Language                                 : Icelandic
  463. Default                                  : No
  464. Forced                                   : No
  465. Text #23
  466. ID                                       : 30
  467. Format                                   : PGS
  468. Muxing mode                              : zlib
  469. Codec ID                                 : S_HDMV/PGS
  470. Codec ID/Info                            : Picture based subtitle format used on BDs/HD-DVDs
  471. Duration                                 : 2 h 5 min
  472. Bit rate                                 : 15.0 kb/s
  473. Count of elements                        : 2452
  474. Stream size                              : 13.5 MiB (0%)
  475. Title                                    : Korean-PGS
  476. Language                                 : Korean
  477. Default                                  : No
  478. Forced                                   : No
  479. Text #24
  480. ID                                       : 31
  481. Format                                   : PGS
  482. Muxing mode                              : zlib
  483. Codec ID                                 : S_HDMV/PGS
  484. Codec ID/Info                            : Picture based subtitle format used on BDs/HD-DVDs
  485. Duration                                 : 2 h 5 min
  486. Bit rate                                 : 19.4 kb/s
  487. Count of elements                        : 2210
  488. Stream size                              : 17.4 MiB (0%)
  489. Title                                    : Latvian-PGS
  490. Language                                 : Latvian
  491. Default                                  : No
  492. Forced                                   : No
  493. Text #25
  494. ID                                       : 32
  495. Format                                   : PGS
  496. Muxing mode                              : zlib
  497. Codec ID                                 : S_HDMV/PGS
  498. Codec ID/Info                            : Picture based subtitle format used on BDs/HD-DVDs
  499. Duration                                 : 2 h 5 min
  500. Bit rate                                 : 20.4 kb/s
  501. Count of elements                        : 2363
  502. Stream size                              : 18.3 MiB (0%)
  503. Title                                    : Lithuanian-PGS
  504. Language                                 : Lithuanian
  505. Default                                  : No
  506. Forced                                   : No
  507. Text #26
  508. ID                                       : 33
  509. Format                                   : PGS
  510. Muxing mode                              : zlib
  511. Codec ID                                 : S_HDMV/PGS
  512. Codec ID/Info                            : Picture based subtitle format used on BDs/HD-DVDs
  513. Duration                                 : 2 h 11 min
  514. Bit rate                                 : 18.9 kb/s
  515. Count of elements                        : 2444
  516. Stream size                              : 17.8 MiB (0%)
  517. Title                                    : Norwegian-PGS
  518. Language                                 : Norwegian
  519. Default                                  : No
  520. Forced                                   : No
  521. Text #27
  522. ID                                       : 34
  523. Format                                   : PGS
  524. Muxing mode                              : zlib
  525. Codec ID                                 : S_HDMV/PGS
  526. Codec ID/Info                            : Picture based subtitle format used on BDs/HD-DVDs
  527. Duration                                 : 2 h 5 min
  528. Bit rate                                 : 20.0 kb/s
  529. Count of elements                        : 2424
  530. Stream size                              : 18.0 MiB (0%)
  531. Title                                    : Polish-PGS
  532. Language                                 : Polish
  533. Default                                  : No
  534. Forced                                   : No
  535. Text #28
  536. ID                                       : 35
  537. Format                                   : PGS
  538. Muxing mode                              : zlib
  539. Codec ID                                 : S_HDMV/PGS
  540. Codec ID/Info                            : Picture based subtitle format used on BDs/HD-DVDs
  541. Duration                                 : 1 h 40 min
  542. Bit rate                                 : 635 b/s
  543. Count of elements                        : 46
  544. Stream size                              : 467 KiB (0%)
  545. Title                                    : Polish-FORCED-PGS
  546. Language                                 : Polish
  547. Default                                  : No
  548. Forced                                   : No
  549. Text #29
  550. ID                                       : 36
  551. Format                                   : PGS
  552. Muxing mode                              : zlib
  553. Codec ID                                 : S_HDMV/PGS
  554. Codec ID/Info                            : Picture based subtitle format used on BDs/HD-DVDs
  555. Duration                                 : 2 h 11 min
  556. Bit rate                                 : 20.9 kb/s
  557. Count of elements                        : 2439
  558. Stream size                              : 19.7 MiB (0%)
  559. Title                                    : Portuguese-PGS
  560. Language                                 : Portuguese
  561. Default                                  : No
  562. Forced                                   : No
  563. Text #30
  564. ID                                       : 37
  565. Format                                   : PGS
  566. Muxing mode                              : zlib
  567. Codec ID                                 : S_HDMV/PGS
  568. Codec ID/Info                            : Picture based subtitle format used on BDs/HD-DVDs
  569. Duration                                 : 2 h 5 min
  570. Bit rate                                 : 19.4 kb/s
  571. Count of elements                        : 2364
  572. Stream size                              : 17.4 MiB (0%)
  573. Title                                    : Romanian-PGS
  574. Language                                 : Romanian
  575. Default                                  : No
  576. Forced                                   : No
  577. Text #31
  578. ID                                       : 38
  579. Format                                   : PGS
  580. Muxing mode                              : zlib
  581. Codec ID                                 : S_HDMV/PGS
  582. Codec ID/Info                            : Picture based subtitle format used on BDs/HD-DVDs
  583. Duration                                 : 2 h 5 min
  584. Bit rate                                 : 20.1 kb/s
  585. Count of elements                        : 2428
  586. Stream size                              : 18.0 MiB (0%)
  587. Title                                    : Russian-PGS
  588. Language                                 : Russian
  589. Default                                  : No
  590. Forced                                   : No
  591. Text #32
  592. ID                                       : 39
  593. Format                                   : PGS
  594. Muxing mode                              : zlib
  595. Codec ID                                 : S_HDMV/PGS
  596. Codec ID/Info                            : Picture based subtitle format used on BDs/HD-DVDs
  597. Duration                                 : 1 h 40 min
  598. Bit rate                                 : 496 b/s
  599. Count of elements                        : 32
  600. Stream size                              : 365 KiB (0%)
  601. Title                                    : Russian-FORCED-PGS
  602. Language                                 : Russian
  603. Default                                  : No
  604. Forced                                   : No
  605. Text #33
  606. ID                                       : 40
  607. Format                                   : PGS
  608. Muxing mode                              : zlib
  609. Codec ID                                 : S_HDMV/PGS
  610. Codec ID/Info                            : Picture based subtitle format used on BDs/HD-DVDs
  611. Duration                                 : 2 h 5 min
  612. Bit rate                                 : 18.6 kb/s
  613. Count of elements                        : 2424
  614. Stream size                              : 16.7 MiB (0%)
  615. Title                                    : Slovenian-PGS
  616. Language                                 : Slovenian
  617. Default                                  : No
  618. Forced                                   : No
  619. Text #34
  620. ID                                       : 41
  621. Format                                   : PGS
  622. Muxing mode                              : zlib
  623. Codec ID                                 : S_HDMV/PGS
  624. Codec ID/Info                            : Picture based subtitle format used on BDs/HD-DVDs
  625. Duration                                 : 2 h 11 min
  626. Bit rate                                 : 19.2 kb/s
  627. Count of elements                        : 2442
  628. Stream size                              : 18.1 MiB (0%)
  629. Title                                    : Sewdish-PGS
  630. Language                                 : Swedish
  631. Default                                  : No
  632. Forced                                   : No
  633. Text #35
  634. ID                                       : 42
  635. Format                                   : PGS
  636. Muxing mode                              : zlib
  637. Codec ID                                 : S_HDMV/PGS
  638. Codec ID/Info                            : Picture based subtitle format used on BDs/HD-DVDs
  639. Duration                                 : 2 h 5 min
  640. Bit rate                                 : 21.1 kb/s
  641. Count of elements                        : 2452
  642. Stream size                              : 19.0 MiB (0%)
  643. Title                                    : Thai-PGS
  644. Language                                 : Thai
  645. Default                                  : No
  646. Forced                                   : No
  647. Text #36
  648. ID                                       : 43
  649. Format                                   : PGS
  650. Muxing mode                              : zlib
  651. Codec ID                                 : S_HDMV/PGS
  652. Codec ID/Info                            : Picture based subtitle format used on BDs/HD-DVDs
  653. Duration                                 : 1 h 40 min
  654. Bit rate                                 : 3 794 b/s
  655. Count of elements                        : 336
  656. Stream size                              : 2.73 MiB (0%)
  657. Title                                    : Thai-FORCED-PGS
  658. Language                                 : Thai
  659. Default                                  : No
  660. Forced                                   : No
  661. Text #37
  662. ID                                       : 44
  663. Format                                   : PGS
  664. Muxing mode                              : zlib
  665. Codec ID                                 : S_HDMV/PGS
  666. Codec ID/Info                            : Picture based subtitle format used on BDs/HD-DVDs
  667. Duration                                 : 2 h 5 min
  668. Bit rate                                 : 20.4 kb/s
  669. Count of elements                        : 2422
  670. Stream size                              : 18.4 MiB (0%)
  671. Title                                    : Turkish-PGS
  672. Language                                 : Turkish
  673. Default                                  : No
  674. Forced                                   : No
  675. Text #38
  676. ID                                       : 45
  677. Format                                   : PGS
  678. Muxing mode                              : zlib
  679. Codec ID                                 : S_HDMV/PGS
  680. Codec ID/Info                            : Picture based subtitle format used on BDs/HD-DVDs
  681. Duration                                 : 2 h 6 min
  682. Bit rate                                 : 57.0 kb/s
  683. Count of elements                        : 3619
  684. Stream size                              : 51.5 MiB (0%)
  685. Title                                    : English-COMMENTARY-PGS
  686. Language                                 : English
  687. Default                                  : No
  688. Forced                                   : No
  689. Text #39
  690. ID                                       : 46
  691. Format                                   : PGS
  692. Muxing mode                              : zlib
  693. Codec ID                                 : S_HDMV/PGS
  694. Codec ID/Info                            : Picture based subtitle format used on BDs/HD-DVDs
  695. Duration                                 : 2 h 6 min
  696. Bit rate                                 : 58.7 kb/s
  697. Count of elements                        : 3907
  698. Stream size                              : 53.0 MiB (0%)
  699. Title                                    : German-COMMENTARY-PGS
  700. Language                                 : German
  701. Default                                  : No
  702. Forced                                   : No
  703. Menu
  704. 00:00:00.000                             : en:Chapter 01
  705. 00:06:48.741                             : en:Chapter 02
  706. 00:14:44.049                             : en:Chapter 03
  707. 00:24:02.858                             : en:Chapter 04
  708. 00:32:42.168                             : en:Chapter 05
  709. 00:43:36.739                             : en:Chapter 06
  710. 00:51:51.858                             : en:Chapter 07
  711. 00:58:05.899                             : en:Chapter 08
  712. 01:04:33.911                             : en:Chapter 09
  713. 01:08:30.564                             : en:Chapter 10
  714. 01:18:00.634                             : en:Chapter 11
  715. 01:27:03.885                             : en:Chapter 12
  716. 01:38:20.436                             : en:Chapter 13
  717. 01:45:13.807                             : en:Chapter 14
  718. 01:50:08.143                             : en:Chapter 15
  719. 01:58:40.029                             : en:Chapter 16
复制代码






                                       
                                       

                                       
                                       
                                       




回复

使用道具 举报

懒得打字嘛,点击右侧快捷回复 【右侧内容,后台自定义】
您需要登录后才可以回帖 登录 | 立即加入

本版积分规则

Copyright © 2024 Comsenz Inc. Powered by 蓝光电影网

本站内容由用户自主分享和转载自互联网,转载目的在于传递更多信息,并不代表本网赞同其观点和对其真实性负责。

如有侵权、违反国家法律政策行为,请联系我们,我们会第一时间及时清除和处理!

举报反馈邮箱:4k1080.com@gmail.com

快速回复 返回顶部 返回列表