找回密码

蓝光电影网

查看: 669|回复: 0

[UHD.HEVC] 超人之死与超人归来 The.Death.and.Return.of.Superman.2019.2160p.BluRay.REMUX.HEVC.DTS-HD.MA.5.1-FGT 54.34GB

[复制链接]
蓝光币
1483
发表于 2019-10-4 02:07:16 | 显示全部楼层 |阅读模式


◎译  名 超人之死与超人归来
◎片  名 The Death and Return of Superman
◎年  代 2019
◎产  地 美国
◎类  别 动画
◎语  言 英语
◎上映日期 2019-10-01(美国)
◎IMDb链接  http://www.imdb.com/title/tt11043546
◎豆瓣评分 0/10 from 0 users
◎豆瓣链接 https://movie.douban.com/subject/34845738/
◎片  长 166分钟
◎导  演 杰克·卡斯托雷纳 Jake Castorena / 刘山姆 Sam Liu
◎编  剧 比尔·芬格 Bill Finger
◎主  演 杰瑞·奥康奈尔 Jerry O'Connell
       丽贝卡·罗梅恩 Rebecca Romijn
       罗莎里奥·道森 Rosario Dawson
       耐姆比·耐姆比 Nyambi Nyambi
       乔纳森·亚当斯 Jonathan Adams
       洛奇·卡罗尔 Rocky Carroll
       特雷弗·德瓦 Trevor Devall
       保罗·伊丁 Paul Eiding
       詹妮弗·黑尔 Jennifer Hale
       查尔斯·哈尔福德 Charles Halford
       艾丽卡·鲁特雷尔 Erica Luttrell
       马克斯·迈特尔曼 Max Mittelman
       托克斯·奥拉贡多耶 Toks Olagundoye
       里克·帕斯夸隆 Rick Pasqualone
       Amanda Troop

◎简  介  
  The Death of Superman and Reign of the Supermen now presented as an over two-hour unabridged and seamless animated feature. Witness the no-holds-barred battle between the Justice League and an unstoppable alien force known only as Doomsday, a battle that only Superman can finish and will forever change the face of Metropolis.
  The Death and Return of Superman finds Superman in a fight to the finish when the Man of Steel becomes the only hero who can stand in the way of the monstrous creature Doomsday and his unstoppable rampage. Superman saves the planet, but not himself, leaving Earth’s citizens – and his heroic contemporaries – dealing with a world without Superman. The aftermath of Superman’s death, and the subsequent disappearance of his body, leads to a new mystery – is Superman still alive? The question is further complicated when four new super-powered individuals – Steel, Cyborg Superman, Superboy and the Eradicator – emerge to proclaim themselves as the ultimate hero. In the end, only one will be able to proclaim himself the world’s true Superman.
  1. Video
  2. ID                                       : 1
  3. Format                                   : HEVC
  4. Format/Info                              : High Efficiency Video Coding
  5. Format profile                           : Main [email protected]@High
  6. HDR format                               : SMPTE ST 2086, HDR10 compatible
  7. Codec ID                                 : V_MPEGH/ISO/HEVC
  8. Duration                                 : 2 h 46 min
  9. Bit rate                                 : 43.1 Mb/s
  10. Width                                    : 3 840 pixels
  11. Height                                   : 2 160 pixels
  12. Display aspect ratio                     : 16:9
  13. Frame rate mode                          : Constant
  14. Frame rate                               : 23.976 (24000/1001) FPS
  15. Color space                              : YUV
  16. Chroma subsampling                       : 4:2:0 (Type 2)
  17. Bit depth                                : 10 bits
  18. Bits/(Pixel*Frame)                       : 0.217
  19. Stream size                              : 50.1 GiB (92%)
  20. Title                                    : The.Death.and.Return.of.Superman.2019.2160p.BluRay.REMUX.HEVC.DTS-HD.MA.5.1-FGT
  21. Writing library                          : ATEME Titan File 3.9.0 (4.9.0.0)        
  22. Language                                 : English
  23. Default                                  : No
  24. Forced                                   : No
  25. Color range                              : Limited
  26. Color primaries                          : BT.2020
  27. Transfer characteristics                 : PQ
  28. Matrix coefficients                      : BT.2020 non-constant
  29. Mastering display color primaries        : Display P3
  30. Mastering display luminance              : min: 0.0050 cd/m2, max: 4000 cd/m2
  31. Maximum Content Light Level              : 999 cd/m2
  32. Maximum Frame-Average Light Level        : 402 cd/m2
  33. Audio #1
  34. ID                                       : 2
  35. Format                                   : DTS XLL
  36. Format/Info                              : Digital Theater Systems
  37. Commercial name                          : DTS-HD Master Audio
  38. Codec ID                                 : A_DTS
  39. Duration                                 : 2 h 46 min
  40. Bit rate mode                            : Variable
  41. Bit rate                                 : 2 364 kb/s
  42. Channel(s)                               : 6 channels
  43. Channel layout                           : C L R Ls Rs LFE
  44. Sampling rate                            : 48.0 kHz
  45. Frame rate                               : 93.750 FPS (512 SPF)
  46. Bit depth                                : 24 bits
  47. Compression mode                         : Lossless
  48. Stream size                              : 2.75 GiB (5%)
  49. Title                                    : The.Death.and.Return.of.Superman.2019.2160p.BluRay.REMUX.HEVC.DTS-HD.MA.5.1-FGT
  50. Language                                 : English
  51. Default                                  : Yes
  52. Forced                                   : No
  53. Audio #2
  54. ID                                       : 3
  55. Format                                   : AC-3
  56. Format/Info                              : Audio Coding 3
  57. Commercial name                          : Dolby Digital
  58. Codec ID                                 : A_AC3
  59. Duration                                 : 2 h 46 min
  60. Bit rate mode                            : Constant
  61. Bit rate                                 : 640 kb/s
  62. Channel(s)                               : 6 channels
  63. Channel layout                           : L R C LFE Ls Rs
  64. Sampling rate                            : 48.0 kHz
  65. Frame rate                               : 31.250 FPS (1536 SPF)
  66. Bit depth                                : 16 bits
  67. Compression mode                         : Lossy
  68. Stream size                              : 762 MiB (1%)
  69. Title                                    : The.Death.and.Return.of.Superman.2019.2160p.BluRay.REMUX.HEVC.DTS-HD.MA.5.1-FGT
  70. Language                                 : French
  71. Service kind                             : Complete Main
  72. Default                                  : No
  73. Forced                                   : No
  74. Audio #3
  75. ID                                       : 4
  76. Format                                   : AC-3
  77. Format/Info                              : Audio Coding 3
  78. Commercial name                          : Dolby Digital
  79. Codec ID                                 : A_AC3
  80. Duration                                 : 2 h 46 min
  81. Bit rate mode                            : Constant
  82. Bit rate                                 : 640 kb/s
  83. Channel(s)                               : 6 channels
  84. Channel layout                           : L R C LFE Ls Rs
  85. Sampling rate                            : 48.0 kHz
  86. Frame rate                               : 31.250 FPS (1536 SPF)
  87. Bit depth                                : 16 bits
  88. Compression mode                         : Lossy
  89. Stream size                              : 762 MiB (1%)
  90. Title                                    : The.Death.and.Return.of.Superman.2019.2160p.BluRay.REMUX.HEVC.DTS-HD.MA.5.1-FGT
  91. Language                                 : Spanish
  92. Service kind                             : Complete Main
  93. Default                                  : No
  94. Forced                                   : No
  95. Text #1
  96. ID                                       : 5
  97. Format                                   : UTF-8
  98. Codec ID                                 : S_TEXT/UTF8
  99. Codec ID/Info                            : UTF-8 Plain Text
  100. Duration                                 : 2 h 45 min
  101. Bit rate                                 : 47 b/s
  102. Count of elements                        : 1805
  103. Stream size                              : 57.2 KiB (0%)
  104. Title                                    : English-SRT
  105. Language                                 : English
  106. Default                                  : Yes
  107. Forced                                   : No
  108. Text #2
  109. ID                                       : 6
  110. Format                                   : PGS
  111. Muxing mode                              : zlib
  112. Codec ID                                 : S_HDMV/PGS
  113. Codec ID/Info                            : Picture based subtitle format used on BDs/HD-DVDs
  114. Duration                                 : 2 h 45 min
  115. Bit rate                                 : 31.1 kb/s
  116. Count of elements                        : 4282
  117. Stream size                              : 36.9 MiB (0%)
  118. Title                                    : English-PGS
  119. Language                                 : English
  120. Default                                  : No
  121. Forced                                   : No
  122. Text #3
  123. ID                                       : 7
  124. Format                                   : PGS
  125. Muxing mode                              : zlib
  126. Codec ID                                 : S_HDMV/PGS
  127. Codec ID/Info                            : Picture based subtitle format used on BDs/HD-DVDs
  128. Duration                                 : 2 h 45 min
  129. Bit rate                                 : 27.3 kb/s
  130. Count of elements                        : 3734
  131. Stream size                              : 32.3 MiB (0%)
  132. Title                                    : French-PGS
  133. Language                                 : French
  134. Default                                  : No
  135. Forced                                   : No
  136. Text #4
  137. ID                                       : 8
  138. Format                                   : PGS
  139. Muxing mode                              : zlib
  140. Codec ID                                 : S_HDMV/PGS
  141. Codec ID/Info                            : Picture based subtitle format used on BDs/HD-DVDs
  142. Duration                                 : 2 h 45 min
  143. Bit rate                                 : 28.6 kb/s
  144. Count of elements                        : 3750
  145. Stream size                              : 33.8 MiB (0%)
  146. Title                                    : Spanish-PGS
  147. Language                                 : Spanish
  148. Default                                  : No
  149. Forced                                   : No
  150. Menu
  151. 00:00:00.000                             : en:Chapter 01
  152. 00:07:48.926                             : en:Chapter 02
  153. 00:14:27.992                             : en:Chapter 03
  154. 00:25:28.151                             : en:Chapter 04
  155. 00:33:27.630                             : en:Chapter 05
  156. 00:43:19.805                             : en:Chapter 06
  157. 00:50:19.766                             : en:Chapter 07
  158. 01:00:19.282                             : en:Chapter 08
  159. 01:09:33.878                             : en:Chapter 09
  160. 01:18:22.489                             : en:Chapter 10
  161. 01:26:38.693                             : en:Chapter 11
  162. 01:32:43.224                             : en:Chapter 12
  163. 01:40:51.879                             : en:Chapter 13
  164. 01:51:19.881                             : en:Chapter 14
  165. 01:59:28.119                             : en:Chapter 15
  166. 02:08:28.742                             : en:Chapter 16
  167. 02:17:40.126                             : en:Chapter 17
  168. 02:27:44.063                             : en:Chapter 18
  169. 02:35:26.317                             : en:Chapter 19
  170. 02:42:49.801                             : en:Chapter 20
复制代码






                                       
                                       

                                       
                                       
                                       




回复

使用道具 举报

懒得打字嘛,点击右侧快捷回复 【右侧内容,后台自定义】
您需要登录后才可以回帖 登录 | 立即加入

本版积分规则

Archiver|小黑屋| 蓝光电影网 |网站地图

Copyright © 2021 Comsenz Inc. Powered by 蓝光电影网

蓝光电影网

本站内容由用户自主分享和转载自互联网,转载目的在于传递更多信息,并不代表本网赞同其观点和对其真实性负责。

如有侵权、违反国家法律政策行为,请联系我们,我们会第一时间及时清除和处理!

举报反馈邮箱:4k1080.com@gmail.com

快速回复 返回顶部 返回列表