找回密码

蓝光电影网

查看: 980|回复: 0

[2160p] 潘神的迷宫 Pans.Labyrinth.2006.SPANISH.2160p.BluRay.x265.10bit.SDR.DTS-HD.MA.7.1-SWTYBLZ 29.48GB

[复制链接]
蓝光币
1704
发表于 2019-10-3 03:30:04 | 显示全部楼层 |阅读模式


◎译  名 潘神的迷宫 / Pan's Labyrinth / 奇异迷宫 / 潘的迷宫 / 羊男的迷宫 / 魔间迷宫
◎片  名 El laberinto del fauno
◎年  代 2006
◎产  地 西班牙 / 墨西哥 / 美国
◎类  别 剧情 / 悬疑 / 战争 / 奇异
◎语  言 西班牙语
◎上映日期 2006-10-11(西班牙)
◎IMDb评分  8.2/10 from 580358 users
◎IMDb链接  http://www.imdb.com/title/tt0457430
◎豆瓣评分 7.8/10 from 157304 users
◎豆瓣链接 https://movie.douban.com/subject/1767042/
◎片  长 118分钟(英国)
◎导  演 吉尔莫·德尔·托罗 Guillermo del Toro
◎编  剧 吉尔莫·德尔·托罗 Guillermo del Toro
◎主  演 伊万娜·巴克罗 Ivana Baquero
       塞吉·洛佩兹 Sergi López
       玛丽贝尔· 瓦度 Maribel Verdú
       道格·琼斯 Doug Jones
       艾妮安娜·姬儿 Ariadna Gil

◎标  签 魔幻 | 西班牙 | 奇异 | 童话 | 潘神的迷宫 | 战争 | 2006 | 电影
◎简  介  
  12岁女孩子奥菲丽娅(伊万娜?巴克尔洛 饰)有一个泼辣的法西斯军官继父维达(塞吉?洛佩兹 饰),维达的使命就是弹压抵挡者,研讨各类刑具来熬煎摧残被抓来的异见人士,奥菲丽娅天天都目击让人不愉快的事务。眼看着刻毒的继父和其翅膀逐日作恶还以此为乐,母亲又身怀六甲得病在床,被孤独感和目击暴行的疾苦困扰的奥菲丽娅起头沉醉在自己的空想中聊以自慰。
  一天,奥菲丽娅碰到了迷宫的保护者,潘神(道格?琼斯 饰)。潘神告诉她,她实在是奇异王国失落的公主,要想规复身份,必须经过三个危险的考验。
◎获奖情况  
  第79届奥斯卡金像奖(2007)
  最好原创剧本(提名) 吉尔莫·德尔·托罗
  最好外语片(提名) 吉尔莫·德尔·托罗
  最好摄影 吉列尔莫·纳瓦罗
  最好艺术指导 尤吉尼奥·卡巴莱罗 / Pilar Revuelta
  最好化装 David Martí / Montse Ribé
  最好原创配乐(提名) 哈维尔·纳瓦雷特
  第59届戛纳电影节(2006)
  主比赛单元 金棕榈奖(提名) 吉尔莫·德尔·托罗
  第64届金球奖(2007)
  电影类 最好外语片(提名)
  1. Video
  2. ID                                       : 1
  3. Format                                   : HEVC
  4. Format/Info                              : High Efficiency Video Coding
  5. Format profile                           : Main [email protected]@High
  6. Codec ID                                 : V_MPEGH/ISO/HEVC
  7. Duration                                 : 1 h 59 min
  8. Bit rate                                 : 29.5 Mb/s
  9. Width                                    : 3 840 pixels
  10. Height                                   : 2 076 pixels
  11. Display aspect ratio                     : 1.85:1
  12. Frame rate mode                          : Constant
  13. Frame rate                               : 23.976 (24000/1001) FPS
  14. Color space                              : YUV
  15. Chroma subsampling                       : 4:2:0
  16. Bit depth                                : 10 bits
  17. Bits/(Pixel*Frame)                       : 0.154
  18. Stream size                              : 24.5 GiB (83%)
  19. Title                                    : Pans.Labyrinth.2006.SPANISH.2160p.BluRay.x265.10bit.SDR.DTS-HD.MA.7.1-SWTYBLZ
  20. Writing library                          : x265 3.0ed72af837053:[Windows][GCC 8.2.0][64 bit] 10bit
  21. Encoding settings                        : cpuid=1111039 / frame-threads=16 / numa-pools=44,44 / wpp / no-pmode / no-pme / no-psnr / no-ssim / log-level=2 / input-csp=1 / input-res=3840x2076 / interlace=0 / total-frames=171432 / level-idc=51 / high-tier=1 / uhd-bd=0 / ref=3 / no-allow-non-conformance / repeat-headers / annexb / aud / hrd / info / hash=0 / no-temporal-layers / no-open-gop / min-keyint=1 / keyint=24 / gop-lookahead=0 / bframes=4 / b-adapt=2 / b-pyramid / bframe-bias=0 / rc-lookahead=25 / lookahead-slices=4 / scenecut=40 / radl=0 / no-splice / no-intra-refresh / ctu=64 / min-cu-size=8 / no-rect / no-amp / max-tu-size=32 / tu-inter-depth=1 / tu-intra-depth=1 / limit-tu=0 / rdoq-level=0 / dynamic-rd=0.00 / no-ssim-rd / signhide / no-tskip / nr-intra=0 / nr-inter=0 / no-constrained-intra / strong-intra-smoothing / max-merge=2 / limit-refs=3 / no-limit-modes / me=1 / subme=2 / merange=57 / temporal-mvp / weightp / no-weightb / no-analyze-src-pics / deblock=0:0 / no-sao / no-sao-non-deblock / rd=3 / no-early-skip / rskip / no-fast-intra / no-tskip-fast / no-cu-lossless / no-b-intra / no-splitrd-skip / rdpenalty=0 / psy-rd=2.00 / psy-rdoq=0.00 / no-rd-refine / no-lossless / cbqpoffs=0 / crqpoffs=0 / rc=crf / crf=16.0 / qcomp=0.60 / qpstep=4 / stats-write=0 / stats-read=0 / vbv-maxrate=160000 / vbv-bufsize=160000 / vbv-init=0.9 / crf-max=0.0 / crf-min=0.0 / ipratio=1.40 / pbratio=1.30 / aq-mode=1 / aq-strength=1.00 / cutree / zone-count=0 / no-strict-cbr / qg-size=32 / no-rc-grain / qpmax=69 / qpmin=0 / no-const-vbv / sar=1 / overscan=0 / videoformat=5 / range=0 / colorprim=2 / transfer=2 / colormatrix=2 / chromaloc=0 / display-window=0 / max-cll=0,0 / min-luma=0 / max-luma=1023 / log2-max-poc-lsb=8 / vui-timing-info / vui-hrd-info / slices=1 / opt-qp-pps / opt-ref-list-length-pps / no-multi-pass-opt-rps / scenecut-bias=0.05 / no-opt-cu-delta-qp / no-aq-motion / no-hdr / no-hdr-opt / no-dhdr10-opt / no-idr-recovery-sei / analysis-reuse-level=5 / scale-factor=0 / refine-intra=0 / refine-inter=0 / refine-mv=0 / refine-ctu-distortion=0 / no-limit-sao / ctu-info=0 / no-lowpass-dct / refine-analysis-type=0 / copy-pic=1 / max-ausize-factor=1.0 / no-dynamic-refine / no-single-sei / no-hevc-aq / qp-adaptation-range=1.00
  22. Language                                 : Spanish
  23. Default                                  : Yes
  24. Forced                                   : No
  25. Audio #1
  26. ID                                       : 2
  27. Format                                   : DTS XLL
  28. Format/Info                              : Digital Theater Systems
  29. Commercial name                          : DTS-HD Master Audio
  30. Codec ID                                 : A_DTS
  31. Duration                                 : 1 h 59 min
  32. Bit rate mode                            : Variable
  33. Bit rate                                 : 5 175 kb/s
  34. Channel(s)                               : 8 channels
  35. Channel layout                           : C L R LFE Lb Rb Lss Rss
  36. Sampling rate                            : 48.0 kHz
  37. Frame rate                               : 93.750 FPS (512 SPF)
  38. Bit depth                                : 24 bits
  39. Compression mode                         : Lossless
  40. Stream size                              : 4.31 GiB (15%)
  41. Title                                    : Pans.Labyrinth.2006.SPANISH.2160p.BluRay.x265.10bit.SDR.DTS-HD.MA.7.1-SWTYBLZ
  42. Language                                 : Spanish
  43. Default                                  : Yes
  44. Forced                                   : No
  45. Audio #2
  46. ID                                       : 3
  47. Format                                   : AC-3
  48. Format/Info                              : Audio Coding 3
  49. Commercial name                          : Dolby Digital
  50. Codec ID                                 : A_AC3
  51. Duration                                 : 1 h 59 min
  52. Bit rate mode                            : Constant
  53. Bit rate                                 : 640 kb/s
  54. Channel(s)                               : 6 channels
  55. Channel layout                           : L R C LFE Ls Rs
  56. Sampling rate                            : 48.0 kHz
  57. Frame rate                               : 31.250 FPS (1536 SPF)
  58. Bit depth                                : 16 bits
  59. Compression mode                         : Lossy
  60. Stream size                              : 546 MiB (2%)
  61. Title                                    : Pans.Labyrinth.2006.SPANISH.2160p.BluRay.x265.10bit.SDR.DTS-HD.MA.7.1-SWTYBLZ
  62. Language                                 : Spanish
  63. Service kind                             : Complete Main
  64. Default                                  : No
  65. Forced                                   : No
  66. Text #1
  67. ID                                       : 4
  68. Format                                   : UTF-8
  69. Codec ID                                 : S_TEXT/UTF8
  70. Codec ID/Info                            : UTF-8 Plain Text
  71. Duration                                 : 1 h 51 min
  72. Bit rate                                 : 28 b/s
  73. Count of elements                        : 886
  74. Stream size                              : 23.2 KiB (0%)
  75. Title                                    : English-SRT
  76. Language                                 : English
  77. Default                                  : Yes
  78. Forced                                   : No
  79. Text #2
  80. ID                                       : 5
  81. Format                                   : PGS
  82. Muxing mode                              : zlib
  83. Codec ID                                 : S_HDMV/PGS
  84. Codec ID/Info                            : Picture based subtitle format used on BDs/HD-DVDs
  85. Duration                                 : 1 h 51 min
  86. Bit rate                                 : 15.8 kb/s
  87. Count of elements                        : 1774
  88. Stream size                              : 12.6 MiB (0%)
  89. Title                                    : English-PGS
  90. Language                                 : English
  91. Default                                  : No
  92. Forced                                   : No
  93. Text #3
  94. ID                                       : 6
  95. Format                                   : PGS
  96. Muxing mode                              : zlib
  97. Codec ID                                 : S_HDMV/PGS
  98. Codec ID/Info                            : Picture based subtitle format used on BDs/HD-DVDs
  99. Duration                                 : 1 h 57 min
  100. Bit rate                                 : 16.6 kb/s
  101. Count of elements                        : 1768
  102. Stream size                              : 13.9 MiB (0%)
  103. Title                                    : Spanish-PGS
  104. Language                                 : Spanish
  105. Default                                  : No
  106. Forced                                   : No
  107. Menu
  108. 00:00:00.000                             : en:Chapter 01
  109. 00:05:51.476                             : en:Chapter 02
  110. 00:11:30.398                             : en:Chapter 03
  111. 00:14:52.808                             : en:Chapter 04
  112. 00:18:10.214                             : en:Chapter 05
  113. 00:24:52.449                             : en:Chapter 06
  114. 00:31:12.996                             : en:Chapter 07
  115. 00:38:34.061                             : en:Chapter 08
  116. 00:42:56.949                             : en:Chapter 09
  117. 00:46:17.399                             : en:Chapter 10
  118. 00:48:16.810                             : en:Chapter 11
  119. 00:55:38.626                             : en:Chapter 12
  120. 01:02:36.419                             : en:Chapter 13
  121. 01:07:57.656                             : en:Chapter 14
  122. 01:12:54.661                             : en:Chapter 15
  123. 01:16:45.017                             : en:Chapter 16
  124. 01:21:44.190                             : en:Chapter 17
  125. 01:25:12.398                             : en:Chapter 18
  126. 01:31:28.566                             : en:Chapter 19
  127. 01:36:28.240                             : en:Chapter 20
  128. 01:43:04.636                             : en:Chapter 21
  129. 01:52:19.733                             : en:Chapter 22
复制代码










                                       
                                       

                                       
                                       
                                       




回复

使用道具 举报

懒得打字嘛,点击右侧快捷回复 【右侧内容,后台自定义】
您需要登录后才可以回帖 登录 | 立即加入

本版积分规则

Archiver|小黑屋| 蓝光电影网 |网站地图

Copyright © 2021 Comsenz Inc. Powered by 蓝光电影网

蓝光电影网

本站内容由用户自主分享和转载自互联网,转载目的在于传递更多信息,并不代表本网赞同其观点和对其真实性负责。

如有侵权、违反国家法律政策行为,请联系我们,我们会第一时间及时清除和处理!

举报反馈邮箱:4k1080.com@gmail.com

快速回复 返回顶部 返回列表