找回密码

蓝光电影网

查看: 994|回复: 0

[2160p] 丧尸乐园/僵尸之地 Zombieland.2009.2160p.BluRay.x264.8bit.SDR.DTS-HD.MA.TrueHD.7.1.Atmos-SWTYBLZ 28.24GB

[复制链接]
蓝光币
1704
发表于 2019-10-2 23:00:31 | 显示全部楼层 |阅读模式


◎译  名 丧尸乐园 / 僵尸之地 / 僵尸领地 / 尸乐园
◎片  名 Zombieland
◎年  代 2009
◎产  地 美国
◎类  别 笑剧 / 可骇
◎语  言 英语
◎上映日期 2009-09-25(奥斯汀奇异电影节) / 2009-10-02(美国)
◎IMDb评分  7.6/10 from 469378 users
◎IMDb链接  http://www.imdb.com/title/tt1156398
◎豆瓣评分 7.3/10 from 52500 users
◎豆瓣链接 https://movie.douban.com/subject/3259993/
◎片  长 88分钟
◎导  演 鲁本·弗雷斯彻 Ruben Fleischer
◎编  剧 略特·里斯 Rhett Reese / 保罗·韦尼克 Paul Wernick
◎主  演 杰西·艾森伯格 Jesse Eisenberg
       伍迪·哈里森 Woody Harrelson
       艾玛·斯通 Emma Stone
       阿比盖尔·布蕾斯琳 Abigail Breslin
       艾梅柏·希尔德 Amber Heard
       比尔·默瑞 Bill Murray
       Derek Graf

◎标  签 笑剧 | 僵尸 | 美国 | 丧尸 | 可骇 | 美国电影 | 2009 | 暴力
◎简  介  
  未来某天,灾难来临人间,天灾天灾让地球接近扑灭。更加可怕的是,可骇病毒肆意舒展,人类相继化身为损失人性、嗜血如命的可骇僵尸。而且随着时光的流逝,僵尸的智商不竭提升,已经成为范围庞大的可骇雄师。经过几个月的厮杀,居住在得州某小镇的哥伦布(杰斯·艾森伯格 Jesse Eisenberg 饰)是少数的幸存者之一,他唯命是从,行事谨慎,却凭着总结出来的经历一次又一次逃诞生天。某天,哥伦布碰见风格骠悍的塔拉哈西(伍迪·哈里森 Woody Harrelson 饰),两人一路同业,继而相逢性感美艳的姐妹花薇奇塔(艾玛·斯通 Emma Stone 饰)和小石头(阿比盖尔·布莱斯林 Abigail Breslin 饰),他们由此起头了一段妙趣横生、惊险刺激的旅程……
  本片荣获2009年Sitges – Catalonian国际电影节观众奖。
◎获奖情况  
  第19届MTV电影奖(2010)
  MTV电影奖 最好惊骇戏表演(提名) 杰西·艾森伯格
  MTV电影奖 最目瞪口呆排场(提名) 比尔·默瑞
  第14届圣地亚哥影评人协会奖(2009)
  年度劳模 伍迪·哈里森
  第12届美国青少年挑选奖(2010)
  最好笑剧片女演员(提名) 艾玛·斯通
  1. Video
  2. ID                                       : 1
  3. Format                                   : AVC
  4. Format/Info                              : Advanced Video Codec
  5. Format profile                           : [email protected]
  6. Format settings                          : CABAC / 5 Ref Frames
  7. Format settings, CABAC                   : Yes
  8. Format settings, Reference frames        : 5 frames
  9. Codec ID                                 : V_MPEG4/ISO/AVC
  10. Duration                                 : 1 h 27 min
  11. Bit rate                                 : 37.3 Mb/s
  12. Width                                    : 3 840 pixels
  13. Height                                   : 1 606 pixels
  14. Display aspect ratio                     : 2.40:1
  15. Frame rate mode                          : Constant
  16. Frame rate                               : 23.976 (24000/1001) FPS
  17. Color space                              : YUV
  18. Chroma subsampling                       : 4:2:0
  19. Bit depth                                : 8 bits
  20. Scan type                                : Progressive
  21. Bits/(Pixel*Frame)                       : 0.252
  22. Stream size                              : 22.8 GiB (81%)
  23. Title                                    : Zombieland.2009.2160p.BluRay.x264.8bit.SDR.DTS-HD.MA.TrueHD.7.1.Atmos-SWTYBLZ
  24. Writing library                          : x264 core 157 r2935 545de2f
  25. Encoding settings                        : cabac=1 / ref=5 / deblock=1:-1:-1 / analyse=0x3:0x113 / me=umh / subme=10 / psy=1 / psy_rd=1.00:0.15 / mixed_ref=1 / me_range=48 / chroma_me=1 / trellis=2 / 8x8dct=1 / cqm=0 / deadzone=21,11 / fast_pskip=1 / chroma_qp_offset=-3 / threads=48 / lookahead_threads=4 / sliced_threads=0 / nr=0 / decimate=0 / interlaced=0 / bluray_compat=0 / constrained_intra=0 / bframes=3 / b_pyramid=2 / b_adapt=2 / b_bias=0 / direct=3 / weightb=1 / open_gop=0 / weightp=2 / keyint=250 / keyint_min=23 / scenecut=40 / intra_refresh=0 / rc_lookahead=50 / rc=crf / mbtree=1 / crf=18.0 / qcomp=0.60 / qpmin=0 / qpmax=69 / qpstep=4 / ip_ratio=1.40 / aq=1:1.00
  26. Default                                  : Yes
  27. Forced                                   : No
  28. Audio #1
  29. ID                                       : 2
  30. Format                                   : MLP FBA 16-ch
  31. Format/Info                              : Meridian Lossless Packing FBA with 16-channel presentation
  32. Commercial name                          : Dolby TrueHD with Dolby Atmos
  33. Codec ID                                 : A_TRUEHD
  34. Duration                                 : 1 h 27 min
  35. Bit rate mode                            : Variable
  36. Bit rate                                 : 3 096 kb/s
  37. Maximum bit rate                         : 4 956 kb/s
  38. Channel(s)                               : 8 channels
  39. Channel layout                           : L R C LFE Ls Rs Lb Rb
  40. Sampling rate                            : 48.0 kHz
  41. Frame rate                               : 1 200.000 FPS (40 SPF)
  42. Compression mode                         : Lossless
  43. Stream size                              : 1.90 GiB (7%)
  44. Title                                    : Zombieland.2009.2160p.BluRay.x264.8bit.SDR.DTS-HD.MA.TrueHD.7.1.Atmos-SWTYBLZ
  45. Language                                 : English
  46. Default                                  : Yes
  47. Forced                                   : No
  48. Number of dynamic objects                : 11
  49. Bed channel count                        : 1 channel
  50. Bed channel configuration                : LFE
  51. Audio #2
  52. ID                                       : 3
  53. Format                                   : DTS XLL
  54. Format/Info                              : Digital Theater Systems
  55. Commercial name                          : DTS-HD Master Audio
  56. Codec ID                                 : A_DTS
  57. Duration                                 : 1 h 27 min
  58. Bit rate mode                            : Variable
  59. Bit rate                                 : 4 362 kb/s
  60. Channel(s)                               : 8 channels
  61. Channel layout                           : C L R LFE Lb Rb Lss Rss
  62. Sampling rate                            : 48.0 kHz
  63. Frame rate                               : 93.750 FPS (512 SPF)
  64. Bit depth                                : 24 bits
  65. Compression mode                         : Lossless
  66. Stream size                              : 2.67 GiB (10%)
  67. Title                                    : Zombieland.2009.2160p.BluRay.x264.8bit.SDR.DTS-HD.MA.TrueHD.7.1.Atmos-SWTYBLZ
  68. Language                                 : English
  69. Default                                  : No
  70. Forced                                   : No
  71. Audio #3
  72. ID                                       : 4
  73. Format                                   : AC-3
  74. Format/Info                              : Audio Coding 3
  75. Commercial name                          : Dolby Digital
  76. Codec ID                                 : A_AC3
  77. Duration                                 : 1 h 27 min
  78. Bit rate mode                            : Constant
  79. Bit rate                                 : 640 kb/s
  80. Channel(s)                               : 6 channels
  81. Channel layout                           : L R C LFE Ls Rs
  82. Sampling rate                            : 48.0 kHz
  83. Frame rate                               : 31.250 FPS (1536 SPF)
  84. Bit depth                                : 16 bits
  85. Compression mode                         : Lossy
  86. Stream size                              : 401 MiB (1%)
  87. Title                                    : Zombieland.2009.2160p.BluRay.x264.8bit.SDR.DTS-HD.MA.TrueHD.7.1.Atmos-SWTYBLZ
  88. Language                                 : English
  89. Service kind                             : Complete Main
  90. Default                                  : No
  91. Forced                                   : No
  92. Text #1
  93. ID                                       : 5
  94. Format                                   : UTF-8
  95. Codec ID                                 : S_TEXT/UTF8
  96. Codec ID/Info                            : UTF-8 Plain Text
  97. Duration                                 : 1 h 26 min
  98. Bit rate                                 : 48 b/s
  99. Count of elements                        : 885
  100. Stream size                              : 30.6 KiB (0%)
  101. Title                                    : English-SRT
  102. Language                                 : English
  103. Default                                  : Yes
  104. Forced                                   : No
  105. Text #2
  106. ID                                       : 6
  107. Format                                   : PGS
  108. Muxing mode                              : zlib
  109. Codec ID                                 : S_HDMV/PGS
  110. Codec ID/Info                            : Picture based subtitle format used on BDs/HD-DVDs
  111. Duration                                 : 1 h 27 min
  112. Bit rate                                 : 37.5 kb/s
  113. Count of elements                        : 2552
  114. Stream size                              : 23.4 MiB (0%)
  115. Title                                    : English-SDH-PGS
  116. Language                                 : English
  117. Default                                  : No
  118. Forced                                   : No
  119. Text #3
  120. ID                                       : 7
  121. Format                                   : PGS
  122. Muxing mode                              : zlib
  123. Codec ID                                 : S_HDMV/PGS
  124. Codec ID/Info                            : Picture based subtitle format used on BDs/HD-DVDs
  125. Duration                                 : 1 h 26 min
  126. Bit rate                                 : 28.4 kb/s
  127. Count of elements                        : 1783
  128. Stream size                              : 17.7 MiB (0%)
  129. Title                                    : English-PGS
  130. Language                                 : English
  131. Default                                  : No
  132. Forced                                   : No
  133. Text #4
  134. ID                                       : 8
  135. Format                                   : PGS
  136. Muxing mode                              : zlib
  137. Codec ID                                 : S_HDMV/PGS
  138. Codec ID/Info                            : Picture based subtitle format used on BDs/HD-DVDs
  139. Duration                                 : 1 h 27 min
  140. Bit rate                                 : 37.5 kb/s
  141. Count of elements                        : 2554
  142. Stream size                              : 23.3 MiB (0%)
  143. Title                                    : English-SDH-PGS
  144. Language                                 : English
  145. Default                                  : No
  146. Forced                                   : No
  147. Text #5
  148. ID                                       : 9
  149. Format                                   : PGS
  150. Muxing mode                              : zlib
  151. Codec ID                                 : S_HDMV/PGS
  152. Codec ID/Info                            : Picture based subtitle format used on BDs/HD-DVDs
  153. Duration                                 : 1 h 26 min
  154. Bit rate                                 : 28.4 kb/s
  155. Count of elements                        : 1785
  156. Stream size                              : 17.7 MiB (0%)
  157. Title                                    : English-PGS
  158. Language                                 : English
  159. Default                                  : No
  160. Forced                                   : No
  161. Text #6
  162. ID                                       : 10
  163. Format                                   : PGS
  164. Muxing mode                              : zlib
  165. Codec ID                                 : S_HDMV/PGS
  166. Codec ID/Info                            : Picture based subtitle format used on BDs/HD-DVDs
  167. Duration                                 : 1 h 26 min
  168. Bit rate                                 : 24.7 kb/s
  169. Count of elements                        : 1874
  170. Stream size                              : 15.4 MiB (0%)
  171. Title                                    : Chinese-PGS
  172. Language                                 : Chinese
  173. Default                                  : No
  174. Forced                                   : No
  175. Text #7
  176. ID                                       : 11
  177. Format                                   : PGS
  178. Muxing mode                              : zlib
  179. Codec ID                                 : S_HDMV/PGS
  180. Codec ID/Info                            : Picture based subtitle format used on BDs/HD-DVDs
  181. Duration                                 : 1 h 26 min
  182. Bit rate                                 : 24.5 kb/s
  183. Count of elements                        : 1874
  184. Stream size                              : 15.2 MiB (0%)
  185. Title                                    : Chinese-PGS
  186. Language                                 : Chinese
  187. Default                                  : No
  188. Forced                                   : No
  189. Text #8
  190. ID                                       : 12
  191. Format                                   : PGS
  192. Muxing mode                              : zlib
  193. Codec ID                                 : S_HDMV/PGS
  194. Codec ID/Info                            : Picture based subtitle format used on BDs/HD-DVDs
  195. Duration                                 : 1 h 26 min
  196. Bit rate                                 : 24.4 kb/s
  197. Count of elements                        : 1785
  198. Stream size                              : 15.2 MiB (0%)
  199. Title                                    : Czech-PGS
  200. Language                                 : Czech
  201. Default                                  : No
  202. Forced                                   : No
  203. Text #9
  204. ID                                       : 13
  205. Format                                   : PGS
  206. Muxing mode                              : zlib
  207. Codec ID                                 : S_HDMV/PGS
  208. Codec ID/Info                            : Picture based subtitle format used on BDs/HD-DVDs
  209. Duration                                 : 1 h 26 min
  210. Bit rate                                 : 25.5 kb/s
  211. Count of elements                        : 1696
  212. Stream size                              : 15.9 MiB (0%)
  213. Title                                    : Danish-PGS
  214. Language                                 : Danish
  215. Default                                  : No
  216. Forced                                   : No
  217. Text #10
  218. ID                                       : 14
  219. Format                                   : PGS
  220. Muxing mode                              : zlib
  221. Codec ID                                 : S_HDMV/PGS
  222. Codec ID/Info                            : Picture based subtitle format used on BDs/HD-DVDs
  223. Duration                                 : 1 h 27 min
  224. Bit rate                                 : 26.4 kb/s
  225. Count of elements                        : 1851
  226. Stream size                              : 16.5 MiB (0%)
  227. Title                                    : Dutch-PGS
  228. Language                                 : Dutch
  229. Default                                  : No
  230. Forced                                   : No
  231. Text #11
  232. ID                                       : 15
  233. Format                                   : PGS
  234. Muxing mode                              : zlib
  235. Codec ID                                 : S_HDMV/PGS
  236. Codec ID/Info                            : Picture based subtitle format used on BDs/HD-DVDs
  237. Duration                                 : 1 h 27 min
  238. Bit rate                                 : 24.1 kb/s
  239. Count of elements                        : 1756
  240. Stream size                              : 15.0 MiB (0%)
  241. Title                                    : Finnish-PGS
  242. Language                                 : Finnish
  243. Default                                  : No
  244. Forced                                   : No
  245. Text #12
  246. ID                                       : 16
  247. Format                                   : PGS
  248. Muxing mode                              : zlib
  249. Codec ID                                 : S_HDMV/PGS
  250. Codec ID/Info                            : Picture based subtitle format used on BDs/HD-DVDs
  251. Duration                                 : 1 h 27 min
  252. Bit rate                                 : 23.2 kb/s
  253. Count of elements                        : 1784
  254. Stream size                              : 14.5 MiB (0%)
  255. Title                                    : French-PGS
  256. Language                                 : French
  257. Default                                  : No
  258. Forced                                   : No
  259. Text #13
  260. ID                                       : 17
  261. Format                                   : PGS
  262. Muxing mode                              : zlib
  263. Codec ID                                 : S_HDMV/PGS
  264. Codec ID/Info                            : Picture based subtitle format used on BDs/HD-DVDs
  265. Duration                                 : 1 h 26 min
  266. Bit rate                                 : 25.7 kb/s
  267. Count of elements                        : 1637
  268. Stream size                              : 16.0 MiB (0%)
  269. Title                                    : German-PGS
  270. Language                                 : German
  271. Default                                  : No
  272. Forced                                   : No
  273. Text #14
  274. ID                                       : 18
  275. Format                                   : PGS
  276. Muxing mode                              : zlib
  277. Codec ID                                 : S_HDMV/PGS
  278. Codec ID/Info                            : Picture based subtitle format used on BDs/HD-DVDs
  279. Duration                                 : 1 h 12 min
  280. Bit rate                                 : 210 b/s
  281. Count of elements                        : 14
  282. Stream size                              : 111 KiB (0%)
  283. Title                                    : German-FORCED-PGS
  284. Language                                 : German
  285. Default                                  : No
  286. Forced                                   : No
  287. Text #15
  288. ID                                       : 19
  289. Format                                   : PGS
  290. Muxing mode                              : zlib
  291. Codec ID                                 : S_HDMV/PGS
  292. Codec ID/Info                            : Picture based subtitle format used on BDs/HD-DVDs
  293. Duration                                 : 1 h 26 min
  294. Bit rate                                 : 27.6 kb/s
  295. Count of elements                        : 1864
  296. Stream size                              : 17.2 MiB (0%)
  297. Title                                    : Greek-PGS
  298. Language                                 : Greek
  299. Default                                  : No
  300. Forced                                   : No
  301. Text #16
  302. ID                                       : 20
  303. Format                                   : PGS
  304. Muxing mode                              : zlib
  305. Codec ID                                 : S_HDMV/PGS
  306. Codec ID/Info                            : Picture based subtitle format used on BDs/HD-DVDs
  307. Duration                                 : 1 h 26 min
  308. Bit rate                                 : 23.3 kb/s
  309. Count of elements                        : 1870
  310. Stream size                              : 14.5 MiB (0%)
  311. Title                                    : Hindi-PGS
  312. Language                                 : Hindi
  313. Default                                  : No
  314. Forced                                   : No
  315. Text #17
  316. ID                                       : 21
  317. Format                                   : PGS
  318. Muxing mode                              : zlib
  319. Codec ID                                 : S_HDMV/PGS
  320. Codec ID/Info                            : Picture based subtitle format used on BDs/HD-DVDs
  321. Duration                                 : 1 h 27 min
  322. Bit rate                                 : 22.9 kb/s
  323. Count of elements                        : 1722
  324. Stream size                              : 14.3 MiB (0%)
  325. Title                                    : Hungarian-PGS
  326. Language                                 : Hungarian
  327. Default                                  : No
  328. Forced                                   : No
  329. Text #18
  330. ID                                       : 22
  331. Format                                   : PGS
  332. Muxing mode                              : zlib
  333. Codec ID                                 : S_HDMV/PGS
  334. Codec ID/Info                            : Picture based subtitle format used on BDs/HD-DVDs
  335. Duration                                 : 1 h 27 min
  336. Bit rate                                 : 30.3 kb/s
  337. Count of elements                        : 1916
  338. Stream size                              : 18.9 MiB (0%)
  339. Title                                    : Italian-PGS
  340. Language                                 : Italian
  341. Default                                  : No
  342. Forced                                   : No
  343. Text #19
  344. ID                                       : 23
  345. Format                                   : PGS
  346. Muxing mode                              : zlib
  347. Codec ID                                 : S_HDMV/PGS
  348. Codec ID/Info                            : Picture based subtitle format used on BDs/HD-DVDs
  349. Duration                                 : 1 h 26 min
  350. Bit rate                                 : 20.9 kb/s
  351. Count of elements                        : 1684
  352. Stream size                              : 13.0 MiB (0%)
  353. Title                                    : Japanese-PGS
  354. Language                                 : Japanese
  355. Default                                  : No
  356. Forced                                   : No
  357. Text #20
  358. ID                                       : 24
  359. Format                                   : PGS
  360. Muxing mode                              : zlib
  361. Codec ID                                 : S_HDMV/PGS
  362. Codec ID/Info                            : Picture based subtitle format used on BDs/HD-DVDs
  363. Duration                                 : 1 h 26 min
  364. Bit rate                                 : 21.1 kb/s
  365. Count of elements                        : 1852
  366. Stream size                              : 13.1 MiB (0%)
  367. Title                                    : Korean-PGS
  368. Language                                 : Korean
  369. Default                                  : No
  370. Forced                                   : No
  371. Text #21
  372. ID                                       : 25
  373. Format                                   : PGS
  374. Muxing mode                              : zlib
  375. Codec ID                                 : S_HDMV/PGS
  376. Codec ID/Info                            : Picture based subtitle format used on BDs/HD-DVDs
  377. Duration                                 : 1 h 27 min
  378. Bit rate                                 : 23.2 kb/s
  379. Count of elements                        : 1817
  380. Stream size                              : 14.5 MiB (0%)
  381. Title                                    : Norwegian-PGS
  382. Language                                 : Norwegian
  383. Default                                  : No
  384. Forced                                   : No
  385. Text #22
  386. ID                                       : 26
  387. Format                                   : PGS
  388. Muxing mode                              : zlib
  389. Codec ID                                 : S_HDMV/PGS
  390. Codec ID/Info                            : Picture based subtitle format used on BDs/HD-DVDs
  391. Duration                                 : 1 h 27 min
  392. Bit rate                                 : 22.4 kb/s
  393. Count of elements                        : 1727
  394. Stream size                              : 13.9 MiB (0%)
  395. Title                                    : Polish-PGS
  396. Language                                 : Polish
  397. Default                                  : No
  398. Forced                                   : No
  399. Text #23
  400. ID                                       : 27
  401. Format                                   : PGS
  402. Muxing mode                              : zlib
  403. Codec ID                                 : S_HDMV/PGS
  404. Codec ID/Info                            : Picture based subtitle format used on BDs/HD-DVDs
  405. Duration                                 : 1 h 27 min
  406. Bit rate                                 : 23.6 kb/s
  407. Count of elements                        : 1716
  408. Stream size                              : 14.7 MiB (0%)
  409. Title                                    : Portuguese-PGS
  410. Language                                 : Portuguese
  411. Default                                  : No
  412. Forced                                   : No
  413. Text #24
  414. ID                                       : 28
  415. Format                                   : PGS
  416. Muxing mode                              : zlib
  417. Codec ID                                 : S_HDMV/PGS
  418. Codec ID/Info                            : Picture based subtitle format used on BDs/HD-DVDs
  419. Duration                                 : 1 h 27 min
  420. Bit rate                                 : 28.8 kb/s
  421. Count of elements                        : 1767
  422. Stream size                              : 18.0 MiB (0%)
  423. Title                                    : Romanian-PGS
  424. Language                                 : Romanian
  425. Default                                  : No
  426. Forced                                   : No
  427. Text #25
  428. ID                                       : 29
  429. Format                                   : PGS
  430. Muxing mode                              : zlib
  431. Codec ID                                 : S_HDMV/PGS
  432. Codec ID/Info                            : Picture based subtitle format used on BDs/HD-DVDs
  433. Duration                                 : 1 h 26 min
  434. Bit rate                                 : 28.8 kb/s
  435. Count of elements                        : 2056
  436. Stream size                              : 17.9 MiB (0%)
  437. Title                                    : Russian-PGS
  438. Language                                 : Russian
  439. Default                                  : No
  440. Forced                                   : No
  441. Text #26
  442. ID                                       : 30
  443. Format                                   : PGS
  444. Muxing mode                              : zlib
  445. Codec ID                                 : S_HDMV/PGS
  446. Codec ID/Info                            : Picture based subtitle format used on BDs/HD-DVDs
  447. Duration                                 : 1 h 26 min
  448. Bit rate                                 : 27.6 kb/s
  449. Count of elements                        : 1862
  450. Stream size                              : 17.1 MiB (0%)
  451. Title                                    : Slovak-PGS
  452. Language                                 : Slovak
  453. Default                                  : No
  454. Forced                                   : No
  455. Text #27
  456. ID                                       : 31
  457. Format                                   : PGS
  458. Muxing mode                              : zlib
  459. Codec ID                                 : S_HDMV/PGS
  460. Codec ID/Info                            : Picture based subtitle format used on BDs/HD-DVDs
  461. Duration                                 : 1 h 26 min
  462. Bit rate                                 : 23.7 kb/s
  463. Count of elements                        : 1860
  464. Stream size                              : 14.8 MiB (0%)
  465. Title                                    : Slovenian-PGS
  466. Language                                 : Slovenian
  467. Default                                  : No
  468. Forced                                   : No
  469. Text #28
  470. ID                                       : 32
  471. Format                                   : PGS
  472. Muxing mode                              : zlib
  473. Codec ID                                 : S_HDMV/PGS
  474. Codec ID/Info                            : Picture based subtitle format used on BDs/HD-DVDs
  475. Duration                                 : 1 h 27 min
  476. Bit rate                                 : 27.8 kb/s
  477. Count of elements                        : 1862
  478. Stream size                              : 17.4 MiB (0%)
  479. Title                                    : Spanish-PGS
  480. Language                                 : Spanish
  481. Default                                  : No
  482. Forced                                   : No
  483. Text #29
  484. ID                                       : 33
  485. Format                                   : PGS
  486. Muxing mode                              : zlib
  487. Codec ID                                 : S_HDMV/PGS
  488. Codec ID/Info                            : Picture based subtitle format used on BDs/HD-DVDs
  489. Duration                                 : 1 h 27 min
  490. Bit rate                                 : 26.5 kb/s
  491. Count of elements                        : 1796
  492. Stream size                              : 16.5 MiB (0%)
  493. Title                                    : Spanish-PGS
  494. Language                                 : Spanish
  495. Default                                  : No
  496. Forced                                   : No
  497. Text #30
  498. ID                                       : 34
  499. Format                                   : PGS
  500. Muxing mode                              : zlib
  501. Codec ID                                 : S_HDMV/PGS
  502. Codec ID/Info                            : Picture based subtitle format used on BDs/HD-DVDs
  503. Duration                                 : 1 h 27 min
  504. Bit rate                                 : 24.1 kb/s
  505. Count of elements                        : 1351
  506. Stream size                              : 15.0 MiB (0%)
  507. Title                                    : Swedish-PGS
  508. Language                                 : Swedish
  509. Default                                  : No
  510. Forced                                   : No
  511. Text #31
  512. ID                                       : 35
  513. Format                                   : PGS
  514. Muxing mode                              : zlib
  515. Codec ID                                 : S_HDMV/PGS
  516. Codec ID/Info                            : Picture based subtitle format used on BDs/HD-DVDs
  517. Duration                                 : 1 h 26 min
  518. Bit rate                                 : 28.4 kb/s
  519. Count of elements                        : 1870
  520. Stream size                              : 17.7 MiB (0%)
  521. Title                                    : Thai-PGS
  522. Language                                 : Thai
  523. Default                                  : No
  524. Forced                                   : No
  525. Text #32
  526. ID                                       : 36
  527. Format                                   : PGS
  528. Muxing mode                              : zlib
  529. Codec ID                                 : S_HDMV/PGS
  530. Codec ID/Info                            : Picture based subtitle format used on BDs/HD-DVDs
  531. Duration                                 : 1 h 27 min
  532. Bit rate                                 : 25.1 kb/s
  533. Count of elements                        : 1872
  534. Stream size                              : 15.6 MiB (0%)
  535. Title                                    : Ukranian-PGS
  536. Language                                 : Ukrainian
  537. Default                                  : No
  538. Forced                                   : No
  539. Menu
  540. 00:00:00.000                             : en:Chapter 01
  541. 00:04:53.543                             : en:Chapter 02
  542. 00:07:13.516                             : en:Chapter 03
  543. 00:12:37.673                             : en:Chapter 04
  544. 00:18:33.654                             : en:Chapter 05
  545. 00:24:07.237                             : en:Chapter 06
  546. 00:30:29.035                             : en:Chapter 07
  547. 00:36:39.071                             : en:Chapter 08
  548. 00:41:05.838                             : en:Chapter 09
  549. 00:45:54.418                             : en:Chapter 10
  550. 00:49:26.171                             : en:Chapter 11
  551. 00:55:55.935                             : en:Chapter 12
  552. 01:02:59.275                             : en:Chapter 13
  553. 01:08:10.795                             : en:Chapter 14
  554. 01:14:53.739                             : en:Chapter 15
  555. 01:19:47.157                             : en:Chapter 16
复制代码










                                       
                                       

                                       
                                       
                                       




回复

使用道具 举报

懒得打字嘛,点击右侧快捷回复 【右侧内容,后台自定义】
您需要登录后才可以回帖 登录 | 立即加入

本版积分规则

Archiver|小黑屋| 蓝光电影网 |网站地图

Copyright © 2021 Comsenz Inc. Powered by 蓝光电影网

蓝光电影网

本站内容由用户自主分享和转载自互联网,转载目的在于传递更多信息,并不代表本网赞同其观点和对其真实性负责。

如有侵权、违反国家法律政策行为,请联系我们,我们会第一时间及时清除和处理!

举报反馈邮箱:4k1080.com@gmail.com

快速回复 返回顶部 返回列表