找回密码

查看: 1125|回复: 0

[2160p] 玩具总动员4/反斗奇兵4 Toy.Story.4.2019.2160p.BluRay.x265.10bit.SDR.DTS-HD.MA.TrueHD.7.1.Atmos-SWTYBLZ 20.01GB

[复制链接]
蓝光币
1840
发表于 2019-9-28 10:48:21 | 显示全部楼层 |阅读模式


◎译  名 玩具总带动4 / 反斗奇兵4(港)
◎片  名 Toy Story 4
◎年  代 2019
◎产  地 美国
◎类  别 笑剧 / 动画 / 奇异
◎语  言 英语
◎上映日期 2019-06-21(美国/中国大陆)
◎IMDb评分  8.1/10 from 89180 users
◎IMDb链接  http://www.imdb.com/title/tt1979376
◎豆瓣评分 8.8/10 from 116747 users
◎豆瓣链接 https://movie.douban.com/subject/6850547/
◎片  长 100分钟
◎导  演 乔什·库雷 Josh Cooley
◎编  剧 约翰·拉塞特 John Lasseter / 安德鲁·斯坦顿 Andrew Stanton / 彼特·道格特 Pete Docter / 李·昂克里奇 Lee Unkrich / 威尔·麦克马克 Will McCormack / 史黛芬妮·福尔松 Stephany Folsom / C·S·安德森 C.S. Anderson
◎主  演 汤姆·汉克斯 Tom Hanks
       蒂姆·艾伦 Tim Allen
       安妮·波茨 Annie Potts
       托尼·海尔 Tony Hale
       科甘-迈克尔·凯 Keegan-Michael Key
       玛德琳·麦格劳 Madeleine McGraw
       克里斯蒂娜·亨德里克斯 Christina Hendricks
       乔丹·皮尔 Jordan Peele
       基努·里维斯 Keanu Reeves
       松村艾丽 Ally Maki
       杰伊·埃尔南德斯 Jay Hernandez
       罗里·艾伦 Lori Alan
       琼·库萨克 Joan Cusack
       邦尼·亨特 Bonnie Hunt
       克里斯汀·沙尔 Kristen Schaal
       华莱士·肖恩 Wallace Shawn
       约翰·拉岑贝格 John Ratzenberger
       布莱克·克拉克 Blake Clark
       琼·斯奎布 June Squibb
       卡尔·韦瑟斯 Carl Weathers
       唐·里克斯 Don Rickles
       杰夫·格尔林 Jeff Garlin
       朱莉安娜·汉森 Juliana Hansen
       爱丝黛儿·哈里斯 Estelle Harris
       劳里·梅特卡夫 Laurie Metcalf
       史蒂夫·波赛尔 Steve Purcell
       梅尔·布鲁克斯 Mel Brooks
       艾伦·欧朋海默 Alan Oppenheimer
       卡罗尔·博内特 Carol Burnett
       贝蒂·怀特 Betty White
       卡尔·雷纳 Carl Reiner
       比尔·哈德尔 Bill Hader
       帕特丽夏·阿奎特 Patricia Arquette
       提摩西·道尔顿 Timothy Dalton
       弗利 Flea
       梅丽莎·维拉斯诺 Melissa Villase?or
       杰夫·皮金 Jeff Pidgeon
       约翰·莫里斯 John Morris

◎标  签 皮克斯 | 动画 | 迪士尼 | 温情 | 美国 | 童年 | 2019 | 长大
◎简  介  
  胡迪深知自己在这个天下上的使命,就是照顾他的仆人,不管是本来的安迪还是新仆人邦妮。当邦妮将不情愿成为玩具的“叉叉”带回家时,胡迪又担起了教导叉叉接管自己新身份的义务。 但是当邦妮将一切玩具带上房车家庭观光时,胡迪与伙伴们将配合踏上全新的冒险之旅,明白房间里面的天下有多广漠,甚至偶遇老朋友牧羊女。在多年的单独闯荡中,牧羊女已经变得酷爱冒险,不再只是一个精美的洋娃娃。正当胡迪和牧羊女发现相互对玩具的使命的意义截然不同时,他们很称心识到更大的威胁行将到来……
  1. Video
  2. ID                                       : 1
  3. Format                                   : HEVC
  4. Format/Info                              : High Efficiency Video Coding
  5. Format profile                           : Main [email protected]@High
  6. Codec ID                                 : V_MPEGH/ISO/HEVC
  7. Duration                                 : 1 h 40 min
  8. Bit rate                                 : 17.4 Mb/s
  9. Width                                    : 3 840 pixels
  10. Height                                   : 1 608 pixels
  11. Display aspect ratio                     : 2.40:1
  12. Frame rate mode                          : Constant
  13. Frame rate                               : 23.976 (24000/1001) FPS
  14. Color space                              : YUV
  15. Chroma subsampling                       : 4:2:0
  16. Bit depth                                : 10 bits
  17. Bits/(Pixel*Frame)                       : 0.118
  18. Stream size                              : 12.2 GiB (61%)
  19. Title                                    : Toy.Story.4.2019.2160p.BluRay.x265.10bit.SDR.DTS-HD.MA.TrueHD.7.1.Atmos-SWTYBLZ
  20. Writing library                          : x265 3.0ed72af837053:[Windows][GCC 8.2.0][64 bit] 10bit
  21. Encoding settings                        : cpuid=1111039 / frame-threads=16 / numa-pools=44,44 / wpp / no-pmode / no-pme / no-psnr / no-ssim / log-level=2 / input-csp=1 / input-res=3840x1608 / interlace=0 / total-frames=143939 / level-idc=51 / high-tier=1 / uhd-bd=0 / ref=3 / no-allow-non-conformance / repeat-headers / annexb / aud / hrd / info / hash=0 / no-temporal-layers / no-open-gop / min-keyint=1 / keyint=24 / gop-lookahead=0 / bframes=6 / b-adapt=2 / b-pyramid / bframe-bias=0 / rc-lookahead=25 / lookahead-slices=4 / scenecut=40 / radl=0 / no-splice / no-intra-refresh / ctu=64 / min-cu-size=8 / no-rect / no-amp / max-tu-size=32 / tu-inter-depth=1 / tu-intra-depth=1 / limit-tu=0 / rdoq-level=0 / dynamic-rd=0.00 / no-ssim-rd / signhide / no-tskip / nr-intra=0 / nr-inter=0 / no-constrained-intra / strong-intra-smoothing / max-merge=2 / limit-refs=3 / no-limit-modes / me=1 / subme=2 / merange=57 / temporal-mvp / weightp / no-weightb / no-analyze-src-pics / deblock=1:1 / no-sao / no-sao-non-deblock / rd=3 / no-early-skip / rskip / no-fast-intra / no-tskip-fast / no-cu-lossless / no-b-intra / no-splitrd-skip / rdpenalty=0 / psy-rd=0.40 / psy-rdoq=0.00 / no-rd-refine / no-lossless / cbqpoffs=0 / crqpoffs=0 / rc=crf / crf=16.0 / qcomp=0.60 / qpstep=4 / stats-write=0 / stats-read=0 / vbv-maxrate=160000 / vbv-bufsize=160000 / vbv-init=0.9 / crf-max=0.0 / crf-min=0.0 / ipratio=1.40 / pbratio=1.30 / aq-mode=1 / aq-strength=0.40 / cutree / zone-count=0 / no-strict-cbr / qg-size=32 / no-rc-grain / qpmax=69 / qpmin=0 / no-const-vbv / sar=1 / overscan=0 / videoformat=5 / range=0 / colorprim=2 / transfer=2 / colormatrix=2 / chromaloc=0 / display-window=0 / max-cll=0,0 / min-luma=0 / max-luma=1023 / log2-max-poc-lsb=8 / vui-timing-info / vui-hrd-info / slices=1 / opt-qp-pps / opt-ref-list-length-pps / no-multi-pass-opt-rps / scenecut-bias=0.05 / no-opt-cu-delta-qp / no-aq-motion / no-hdr / no-hdr-opt / no-dhdr10-opt / no-idr-recovery-sei / analysis-reuse-level=5 / scale-factor=0 / refine-intra=0 / refine-inter=0 / refine-mv=0 / refine-ctu-distortion=0 / no-limit-sao / ctu-info=0 / no-lowpass-dct / refine-analysis-type=0 / copy-pic=1 / max-ausize-factor=1.0 / no-dynamic-refine / no-single-sei / no-hevc-aq / qp-adaptation-range=1.00
  22. Default                                  : Yes
  23. Forced                                   : No
  24. Audio #1
  25. ID                                       : 2
  26. Format                                   : MLP FBA 16-ch
  27. Format/Info                              : Meridian Lossless Packing FBA with 16-channel presentation
  28. Commercial name                          : Dolby TrueHD with Dolby Atmos
  29. Codec ID                                 : A_TRUEHD
  30. Duration                                 : 1 h 40 min
  31. Bit rate mode                            : Variable
  32. Bit rate                                 : 6 192 kb/s
  33. Maximum bit rate                         : 8 532 kb/s
  34. Channel(s)                               : 8 channels
  35. Channel layout                           : L R C LFE Ls Rs Lb Rb
  36. Sampling rate                            : 48.0 kHz
  37. Frame rate                               : 1 200.000 FPS (40 SPF)
  38. Compression mode                         : Lossless
  39. Stream size                              : 4.33 GiB (22%)
  40. Title                                    : Toy.Story.4.2019.2160p.BluRay.x265.10bit.SDR.DTS-HD.MA.TrueHD.7.1.Atmos-SWTYBLZ
  41. Language                                 : English
  42. Default                                  : Yes
  43. Forced                                   : No
  44. Number of dynamic objects                : 13
  45. Bed channel count                        : 1 channel
  46. Bed channel configuration                : LFE
  47. Audio #2
  48. ID                                       : 3
  49. Format                                   : DTS XLL
  50. Format/Info                              : Digital Theater Systems
  51. Commercial name                          : DTS-HD Master Audio
  52. Codec ID                                 : A_DTS
  53. Duration                                 : 1 h 40 min
  54. Bit rate mode                            : Variable
  55. Bit rate                                 : 4 160 kb/s
  56. Channel(s)                               : 8 channels
  57. Channel layout                           : C L R LFE Lb Rb Lss Rss
  58. Sampling rate                            : 48.0 kHz
  59. Frame rate                               : 93.750 FPS (512 SPF)
  60. Bit depth                                : 24 bits
  61. Compression mode                         : Lossless
  62. Stream size                              : 2.91 GiB (15%)
  63. Title                                    : Toy.Story.4.2019.2160p.BluRay.x265.10bit.SDR.DTS-HD.MA.TrueHD.7.1.Atmos-SWTYBLZ
  64. Language                                 : English
  65. Default                                  : No
  66. Forced                                   : No
  67. Audio #3
  68. ID                                       : 4
  69. Format                                   : AC-3
  70. Format/Info                              : Audio Coding 3
  71. Commercial name                          : Dolby Digital
  72. Codec ID                                 : A_AC3
  73. Duration                                 : 1 h 40 min
  74. Bit rate mode                            : Constant
  75. Bit rate                                 : 640 kb/s
  76. Channel(s)                               : 6 channels
  77. Channel layout                           : L R C LFE Ls Rs
  78. Sampling rate                            : 48.0 kHz
  79. Frame rate                               : 31.250 FPS (1536 SPF)
  80. Bit depth                                : 16 bits
  81. Compression mode                         : Lossy
  82. Stream size                              : 458 MiB (2%)
  83. Title                                    : Toy.Story.4.2019.2160p.BluRay.x265.10bit.SDR.DTS-HD.MA.TrueHD.7.1.Atmos-SWTYBLZ
  84. Language                                 : English
  85. Service kind                             : Complete Main
  86. Default                                  : No
  87. Forced                                   : No
  88. Text #1
  89. ID                                       : 5
  90. Format                                   : UTF-8
  91. Codec ID                                 : S_TEXT/UTF8
  92. Codec ID/Info                            : UTF-8 Plain Text
  93. Duration                                 : 1 h 39 min
  94. Bit rate                                 : 63 b/s
  95. Count of elements                        : 1806
  96. Stream size                              : 46.3 KiB (0%)
  97. Title                                    : English-SRT
  98. Language                                 : English
  99. Default                                  : Yes
  100. Forced                                   : No
  101. Text #2
  102. ID                                       : 6
  103. Format                                   : UTF-8
  104. Codec ID                                 : S_TEXT/UTF8
  105. Codec ID/Info                            : UTF-8 Plain Text
  106. Duration                                 : 1 h 39 min
  107. Bit rate                                 : 76 b/s
  108. Count of elements                        : 2062
  109. Stream size                              : 55.5 KiB (0%)
  110. Title                                    : English-SDH-SRT
  111. Language                                 : English
  112. Default                                  : No
  113. Forced                                   : No
  114. Text #3
  115. ID                                       : 7
  116. Format                                   : PGS
  117. Muxing mode                              : zlib
  118. Codec ID                                 : S_HDMV/PGS
  119. Codec ID/Info                            : Picture based subtitle format used on BDs/HD-DVDs
  120. Duration                                 : 1 h 39 min
  121. Bit rate                                 : 51.3 kb/s
  122. Count of elements                        : 4136
  123. Stream size                              : 36.4 MiB (0%)
  124. Title                                    : English-SDH-PGS
  125. Language                                 : English
  126. Default                                  : No
  127. Forced                                   : No
  128. Text #4
  129. ID                                       : 8
  130. Format                                   : PGS
  131. Muxing mode                              : zlib
  132. Codec ID                                 : S_HDMV/PGS
  133. Codec ID/Info                            : Picture based subtitle format used on BDs/HD-DVDs
  134. Duration                                 : 1 h 39 min
  135. Bit rate                                 : 45.0 kb/s
  136. Count of elements                        : 3352
  137. Stream size                              : 31.9 MiB (0%)
  138. Title                                    : French-PGS
  139. Language                                 : French
  140. Default                                  : No
  141. Forced                                   : No
  142. Text #5
  143. ID                                       : 9
  144. Format                                   : PGS
  145. Muxing mode                              : zlib
  146. Codec ID                                 : S_HDMV/PGS
  147. Codec ID/Info                            : Picture based subtitle format used on BDs/HD-DVDs
  148. Duration                                 : 1 h 39 min
  149. Bit rate                                 : 39.5 kb/s
  150. Count of elements                        : 3350
  151. Stream size                              : 28.0 MiB (0%)
  152. Title                                    : Spanish-PGS
  153. Language                                 : Spanish
  154. Default                                  : No
  155. Forced                                   : No
  156. Menu
  157. 00:00:00.000                             : en:00:00:00.000
  158. 00:05:39.798                             : en:00:05:39.798
  159. 00:11:21.097                             : en:00:11:21.097
  160. 00:15:06.239                             : en:00:15:06.239
  161. 00:19:01.140                             : en:00:19:01.140
  162. 00:20:52.042                             : en:00:20:52.042
  163. 00:22:43.821                             : en:00:22:43.821
  164. 00:26:11.111                             : en:00:26:11.111
  165. 00:27:47.082                             : en:00:27:47.082
  166. 00:32:11.846                             : en:00:32:11.846
  167. 00:36:17.425                             : en:00:36:17.425
  168. 00:40:34.640                             : en:00:40:34.640
  169. 00:42:56.699                             : en:00:42:56.699
  170. 00:44:26.872                             : en:00:44:26.872
  171. 00:46:39.380                             : en:00:46:39.380
  172. 00:48:06.175                             : en:00:48:06.175
  173. 00:49:18.664                             : en:00:49:18.664
  174. 00:52:25.809                             : en:00:52:25.809
  175. 00:53:58.568                             : en:00:53:58.568
  176. 00:54:34.479                             : en:00:54:34.479
  177. 00:59:06.960                             : en:00:59:06.960
  178. 01:01:30.645                             : en:01:01:30.645
  179. 01:04:40.752                             : en:01:04:40.752
  180. 01:07:25.249                             : en:01:07:25.249
  181. 01:09:31.042                             : en:01:09:31.042
  182. 01:10:54.834                             : en:01:10:54.834
  183. 01:12:05.154                             : en:01:12:05.154
  184. 01:15:03.040                             : en:01:15:03.040
  185. 01:17:29.770                             : en:01:17:29.770
  186. 01:18:04.846                             : en:01:18:04.846
  187. 01:19:21.840                             : en:01:19:21.840
  188. 01:19:48.116                             : en:01:19:48.116
  189. 01:22:24.940                             : en:01:22:24.940
  190. 01:29:00.293                             : en:01:29:00.293
复制代码










                                       
                                       

                                       
                                       
                                       




回复

使用道具 举报

懒得打字嘛,点击右侧快捷回复 【右侧内容,后台自定义】
您需要登录后才可以回帖 登录 | 立即加入

本版积分规则

Copyright © 2024 Comsenz Inc. Powered by 蓝光电影网

本站内容由用户自主分享和转载自互联网,转载目的在于传递更多信息,并不代表本网赞同其观点和对其真实性负责。

如有侵权、违反国家法律政策行为,请联系我们,我们会第一时间及时清除和处理!

举报反馈邮箱:4k1080.com@gmail.com

快速回复 返回顶部 返回列表