找回密码

查看: 919|回复: 0

[2160p] 地狱男爵/地狱小子 Hellboy.2004.DC.2160p.BluRay.x264.8bit.SDR.DTS-HD.MA.TrueHD.7.1.Atmos-SWTYBLZ 47.97GB

[复制链接]
蓝光币
1840
发表于 2019-10-13 09:19:22 | 显示全部楼层 |阅读模式


◎译  名 天堂男爵 / 天堂小子 / 天堂怪客 / 天堂男孩 / 天魔特攻 / 炎火奇侠
◎片  名 Hellboy
◎年  代 2004
◎产  地 美国
◎类  别 行动 / 奇异 / 冒险
◎语  言 英语 / 俄语
◎上映日期 2004-04-02(美国)
◎IMDb评分  6.8/10 from 294044 users
◎IMDb链接  https://www.imdb.com/title/tt0167190
◎豆瓣评分 6.9/10 from 55929 users
◎豆瓣链接 https://movie.douban.com/subject/1308851/
◎片  长 122分钟
◎导  演 Guillermo del Toro
◎编  剧 Guillermo del Toro / Peter Briggs / 迈克·米格诺拉 Mike Mignola
◎主  演 朗·普尔曼 Ron Perlman
       约翰·赫特 John Hurt
       塞尔玛·布莱尔 Selma Blair
       鲁珀特·伊文斯 Rupert Evans
       卡瑞尔·罗登 Karel Roden
       杰弗里·塔伯 Jeffrey Tambor
       道格·琼斯 Doug Jones
       拉迪斯拉夫·伯兰 Ladislav Beran
       Biddy Hodson
       克里·约翰逊 Corey Johnson
       凯文·特诺 Kevin Trainor
       布莱恩·卡斯佩 Brian Caspe
       詹姆斯·巴伯森  James Babson
       安格斯·麦金尼斯 Angus MacInnes
       吉姆·霍威克 Jim Howick
       罗里·科普斯 Rory Copus

◎标  签 科幻 | 美国 | 魔幻 | 漫画改编 | 行动 | 美国电影 | 奇异 | 2004
◎简  介  
  二战末期,溃败的德军为了改变大势,居然找来了一个邪恶的巫师,诡计操纵他呼唤出天堂男爵,打败盟军。幸亏盟军的突击队在他们停止仪式时实时赶到,顺遂挫败了他们的诡计,但这时辰天堂男爵——1个婴儿已经被呼唤出来了,盟军见此只好收养了他。教授布鲁姆(约翰?赫特 John Hurt  饰)是天堂男爵(朗?普尔曼 Ron Perlman 饰)的养父,他用自己的善良循循教导着男爵,男爵则操纵自己刀枪不入的身材和通天本事为美国政府完成了多项特种使命。但是,阴晦邪恶的赋性还是一向潜藏在男爵的心底,终极人类的善良能否克服来自天堂的邪恶?
  1. Video
  2. ID                                       : 1
  3. Format                                   : AVC
  4. Format/Info                              : Advanced Video Codec
  5. Format profile                           : [email protected]
  6. Format settings                          : CABAC / 5 Ref Frames
  7. Format settings, CABAC                   : Yes
  8. Format settings, Reference frames        : 5 frames
  9. Codec ID                                 : V_MPEG4/ISO/AVC
  10. Duration                                 : 2 h 12 min
  11. Bit rate                                 : 43.7 Mb/s
  12. Width                                    : 3 840 pixels
  13. Height                                   : 2 076 pixels
  14. Display aspect ratio                     : 1.85:1
  15. Frame rate mode                          : Constant
  16. Frame rate                               : 23.976 (24000/1001) FPS
  17. Color space                              : YUV
  18. Chroma subsampling                       : 4:2:0
  19. Bit depth                                : 8 bits
  20. Scan type                                : Progressive
  21. Bits/(Pixel*Frame)                       : 0.229
  22. Stream size                              : 40.5 GiB (85%)
  23. Title                                    : Hellboy.2004.DC.2160p.BluRay.x264.8bit.SDR.DTS-HD.MA.TrueHD.7.1.Atmos-SWTYBLZ
  24. Writing library                          : x264 core 157 r2935 545de2f
  25. Encoding settings                        : cabac=1 / ref=5 / deblock=1:-1:-1 / analyse=0x3:0x113 / me=umh / subme=10 / psy=1 / psy_rd=1.00:0.15 / mixed_ref=1 / me_range=48 / chroma_me=1 / trellis=2 / 8x8dct=1 / cqm=0 / deadzone=21,11 / fast_pskip=1 / chroma_qp_offset=-3 / threads=48 / lookahead_threads=4 / sliced_threads=0 / nr=0 / decimate=0 / interlaced=0 / bluray_compat=0 / constrained_intra=0 / bframes=3 / b_pyramid=2 / b_adapt=2 / b_bias=0 / direct=3 / weightb=1 / open_gop=0 / weightp=2 / keyint=250 / keyint_min=23 / scenecut=40 / intra_refresh=0 / rc_lookahead=50 / rc=crf / mbtree=1 / crf=21.0 / qcomp=0.60 / qpmin=0 / qpmax=69 / qpstep=4 / ip_ratio=1.40 / aq=1:1.00
  26. Default                                  : Yes
  27. Forced                                   : No
  28. Audio #1
  29. ID                                       : 2
  30. Format                                   : MLP FBA 16-ch
  31. Format/Info                              : Meridian Lossless Packing FBA with 16-channel presentation
  32. Commercial name                          : Dolby TrueHD with Dolby Atmos
  33. Codec ID                                 : A_TRUEHD
  34. Duration                                 : 2 h 12 min
  35. Bit rate mode                            : Variable
  36. Bit rate                                 : 3 176 kb/s
  37. Maximum bit rate                         : 3 708 kb/s
  38. Channel(s)                               : 8 channels
  39. Channel layout                           : L R C LFE Ls Rs Lb Rb
  40. Sampling rate                            : 48.0 kHz
  41. Frame rate                               : 1 200.000 FPS (40 SPF)
  42. Compression mode                         : Lossless
  43. Stream size                              : 2.94 GiB (6%)
  44. Title                                    : Hellboy.2004.DC.2160p.BluRay.x264.8bit.SDR.DTS-HD.MA.TrueHD.7.1.Atmos-SWTYBLZ
  45. Language                                 : English
  46. Default                                  : Yes
  47. Forced                                   : No
  48. Number of dynamic objects                : 11
  49. Bed channel count                        : 1 channel
  50. Bed channel configuration                : LFE
  51. Audio #2
  52. ID                                       : 3
  53. Format                                   : DTS XLL
  54. Format/Info                              : Digital Theater Systems
  55. Commercial name                          : DTS-HD Master Audio
  56. Codec ID                                 : A_DTS
  57. Duration                                 : 2 h 12 min
  58. Bit rate mode                            : Variable
  59. Bit rate                                 : 3 818 kb/s
  60. Channel(s)                               : 8 channels
  61. Channel layout                           : C L R LFE Lb Rb Lss Rss
  62. Sampling rate                            : 48.0 kHz
  63. Frame rate                               : 93.750 FPS (512 SPF)
  64. Bit depth                                : 24 bits
  65. Compression mode                         : Lossless
  66. Stream size                              : 3.53 GiB (7%)
  67. Title                                    : Hellboy.2004.DC.2160p.BluRay.x264.8bit.SDR.DTS-HD.MA.TrueHD.7.1.Atmos-SWTYBLZ
  68. Language                                 : English
  69. Default                                  : No
  70. Forced                                   : No
  71. Audio #3
  72. ID                                       : 4
  73. Format                                   : AC-3
  74. Format/Info                              : Audio Coding 3
  75. Commercial name                          : Dolby Digital
  76. Codec ID                                 : A_AC3
  77. Duration                                 : 2 h 12 min
  78. Bit rate mode                            : Constant
  79. Bit rate                                 : 640 kb/s
  80. Channel(s)                               : 6 channels
  81. Channel layout                           : L R C LFE Ls Rs
  82. Sampling rate                            : 48.0 kHz
  83. Frame rate                               : 31.250 FPS (1536 SPF)
  84. Bit depth                                : 16 bits
  85. Compression mode                         : Lossy
  86. Stream size                              : 606 MiB (1%)
  87. Title                                    : Hellboy.2004.DC.2160p.BluRay.x264.8bit.SDR.DTS-HD.MA.TrueHD.7.1.Atmos-SWTYBLZ
  88. Language                                 : English
  89. Service kind                             : Complete Main
  90. Default                                  : No
  91. Forced                                   : No
  92. Text #1
  93. ID                                       : 5
  94. Format                                   : UTF-8
  95. Codec ID                                 : S_TEXT/UTF8
  96. Codec ID/Info                            : UTF-8 Plain Text
  97. Duration                                 : 3 min 50 s
  98. Bit rate                                 : 3 b/s
  99. Count of elements                        : 4
  100. Stream size                              : 95.0 Bytes (0%)
  101. Title                                    : English-FORCED-SRT
  102. Language                                 : English
  103. Default                                  : Yes
  104. Forced                                   : Yes
  105. Text #2
  106. ID                                       : 6
  107. Format                                   : UTF-8
  108. Codec ID                                 : S_TEXT/UTF8
  109. Codec ID/Info                            : UTF-8 Plain Text
  110. Duration                                 : 2 h 5 min
  111. Bit rate                                 : 34 b/s
  112. Count of elements                        : 1181
  113. Stream size                              : 31.8 KiB (0%)
  114. Title                                    : English-SRT
  115. Language                                 : English
  116. Default                                  : No
  117. Forced                                   : No
  118. Text #3
  119. ID                                       : 7
  120. Format                                   : PGS
  121. Muxing mode                              : zlib
  122. Codec ID                                 : S_HDMV/PGS
  123. Codec ID/Info                            : Picture based subtitle format used on BDs/HD-DVDs
  124. Duration                                 : 2 h 5 min
  125. Bit rate                                 : 20.6 kb/s
  126. Count of elements                        : 2378
  127. Stream size                              : 18.5 MiB (0%)
  128. Title                                    : English-PGS
  129. Language                                 : English
  130. Default                                  : No
  131. Forced                                   : No
  132. Text #4
  133. ID                                       : 8
  134. Format                                   : PGS
  135. Muxing mode                              : zlib
  136. Codec ID                                 : S_HDMV/PGS
  137. Codec ID/Info                            : Picture based subtitle format used on BDs/HD-DVDs
  138. Duration                                 : 2 h 7 min
  139. Bit rate                                 : 25.5 kb/s
  140. Count of elements                        : 3000
  141. Stream size                              : 23.2 MiB (0%)
  142. Title                                    : English-SDH-PGS
  143. Language                                 : English
  144. Default                                  : No
  145. Forced                                   : No
  146. Text #5
  147. ID                                       : 9
  148. Format                                   : PGS
  149. Muxing mode                              : zlib
  150. Codec ID                                 : S_HDMV/PGS
  151. Codec ID/Info                            : Picture based subtitle format used on BDs/HD-DVDs
  152. Duration                                 : 2 h 5 min
  153. Bit rate                                 : 11.0 kb/s
  154. Count of elements                        : 2450
  155. Stream size                              : 9.88 MiB (0%)
  156. Title                                    : Arabic-PGS
  157. Language                                 : Arabic
  158. Default                                  : No
  159. Forced                                   : No
  160. Text #6
  161. ID                                       : 10
  162. Format                                   : PGS
  163. Muxing mode                              : zlib
  164. Codec ID                                 : S_HDMV/PGS
  165. Codec ID/Info                            : Picture based subtitle format used on BDs/HD-DVDs
  166. Duration                                 : 2 h 5 min
  167. Bit rate                                 : 18.8 kb/s
  168. Count of elements                        : 2151
  169. Stream size                              : 16.9 MiB (0%)
  170. Title                                    : Bulgarian-PGS
  171. Language                                 : Bulgarian
  172. Default                                  : No
  173. Forced                                   : No
  174. Text #7
  175. ID                                       : 11
  176. Format                                   : PGS
  177. Muxing mode                              : zlib
  178. Codec ID                                 : S_HDMV/PGS
  179. Codec ID/Info                            : Picture based subtitle format used on BDs/HD-DVDs
  180. Duration                                 : 2 h 5 min
  181. Bit rate                                 : 17.4 kb/s
  182. Count of elements                        : 2452
  183. Stream size                              : 15.6 MiB (0%)
  184. Title                                    : Chinese-PGS
  185. Language                                 : Chinese
  186. Default                                  : No
  187. Forced                                   : No
  188. Text #8
  189. ID                                       : 12
  190. Format                                   : PGS
  191. Muxing mode                              : zlib
  192. Codec ID                                 : S_HDMV/PGS
  193. Codec ID/Info                            : Picture based subtitle format used on BDs/HD-DVDs
  194. Duration                                 : 2 h 5 min
  195. Bit rate                                 : 19.8 kb/s
  196. Count of elements                        : 2408
  197. Stream size                              : 17.8 MiB (0%)
  198. Title                                    : Czech-PGS
  199. Language                                 : Czech
  200. Default                                  : No
  201. Forced                                   : No
  202. Text #9
  203. ID                                       : 13
  204. Format                                   : PGS
  205. Muxing mode                              : zlib
  206. Codec ID                                 : S_HDMV/PGS
  207. Codec ID/Info                            : Picture based subtitle format used on BDs/HD-DVDs
  208. Duration                                 : 2 h 11 min
  209. Bit rate                                 : 19.8 kb/s
  210. Count of elements                        : 2352
  211. Stream size                              : 18.6 MiB (0%)
  212. Title                                    : Danish-PGS
  213. Language                                 : Danish
  214. Default                                  : No
  215. Forced                                   : No
  216. Text #10
  217. ID                                       : 14
  218. Format                                   : PGS
  219. Muxing mode                              : zlib
  220. Codec ID                                 : S_HDMV/PGS
  221. Codec ID/Info                            : Picture based subtitle format used on BDs/HD-DVDs
  222. Duration                                 : 2 h 5 min
  223. Bit rate                                 : 18.9 kb/s
  224. Count of elements                        : 1777
  225. Stream size                              : 17.0 MiB (0%)
  226. Title                                    : Estonian-PGS
  227. Language                                 : Estonian
  228. Default                                  : No
  229. Forced                                   : No
  230. Text #11
  231. ID                                       : 15
  232. Format                                   : PGS
  233. Muxing mode                              : zlib
  234. Codec ID                                 : S_HDMV/PGS
  235. Codec ID/Info                            : Picture based subtitle format used on BDs/HD-DVDs
  236. Duration                                 : 2 h 11 min
  237. Bit rate                                 : 18.1 kb/s
  238. Count of elements                        : 1932
  239. Stream size                              : 17.1 MiB (0%)
  240. Title                                    : Finnish-PGS
  241. Language                                 : Finnish
  242. Default                                  : No
  243. Forced                                   : No
  244. Text #12
  245. ID                                       : 16
  246. Format                                   : PGS
  247. Muxing mode                              : zlib
  248. Codec ID                                 : S_HDMV/PGS
  249. Codec ID/Info                            : Picture based subtitle format used on BDs/HD-DVDs
  250. Duration                                 : 2 h 5 min
  251. Bit rate                                 : 22.4 kb/s
  252. Count of elements                        : 2450
  253. Stream size                              : 20.1 MiB (0%)
  254. Title                                    : German-PGS
  255. Language                                 : German
  256. Default                                  : No
  257. Forced                                   : No
  258. Text #13
  259. ID                                       : 17
  260. Format                                   : PGS
  261. Muxing mode                              : zlib
  262. Codec ID                                 : S_HDMV/PGS
  263. Codec ID/Info                            : Picture based subtitle format used on BDs/HD-DVDs
  264. Duration                                 : 2 h 5 min
  265. Bit rate                                 : 21.5 kb/s
  266. Count of elements                        : 2391
  267. Stream size                              : 19.3 MiB (0%)
  268. Title                                    : Greek-PGS
  269. Language                                 : Greek
  270. Default                                  : No
  271. Forced                                   : No
  272. Text #14
  273. ID                                       : 18
  274. Format                                   : PGS
  275. Muxing mode                              : zlib
  276. Codec ID                                 : S_HDMV/PGS
  277. Codec ID/Info                            : Picture based subtitle format used on BDs/HD-DVDs
  278. Duration                                 : 2 h 5 min
  279. Bit rate                                 : 16.4 kb/s
  280. Count of elements                        : 2432
  281. Stream size                              : 14.8 MiB (0%)
  282. Title                                    : Hebrew-PGS
  283. Language                                 : Hebrew
  284. Default                                  : No
  285. Forced                                   : No
  286. Text #15
  287. ID                                       : 19
  288. Format                                   : PGS
  289. Muxing mode                              : zlib
  290. Codec ID                                 : S_HDMV/PGS
  291. Codec ID/Info                            : Picture based subtitle format used on BDs/HD-DVDs
  292. Duration                                 : 2 h 5 min
  293. Bit rate                                 : 19.0 kb/s
  294. Count of elements                        : 2404
  295. Stream size                              : 17.1 MiB (0%)
  296. Title                                    : Hungarian-PGS
  297. Language                                 : Hungarian
  298. Default                                  : No
  299. Forced                                   : No
  300. Text #16
  301. ID                                       : 20
  302. Format                                   : PGS
  303. Muxing mode                              : zlib
  304. Codec ID                                 : S_HDMV/PGS
  305. Codec ID/Info                            : Picture based subtitle format used on BDs/HD-DVDs
  306. Duration                                 : 2 h 5 min
  307. Bit rate                                 : 21.0 kb/s
  308. Count of elements                        : 2344
  309. Stream size                              : 18.9 MiB (0%)
  310. Title                                    : Icelandic-PGS
  311. Language                                 : Icelandic
  312. Default                                  : No
  313. Forced                                   : No
  314. Text #17
  315. ID                                       : 21
  316. Format                                   : PGS
  317. Muxing mode                              : zlib
  318. Codec ID                                 : S_HDMV/PGS
  319. Codec ID/Info                            : Picture based subtitle format used on BDs/HD-DVDs
  320. Duration                                 : 2 h 5 min
  321. Bit rate                                 : 15.0 kb/s
  322. Count of elements                        : 2452
  323. Stream size                              : 13.5 MiB (0%)
  324. Title                                    : Korean-PGS
  325. Language                                 : Korean
  326. Default                                  : No
  327. Forced                                   : No
  328. Text #18
  329. ID                                       : 22
  330. Format                                   : PGS
  331. Muxing mode                              : zlib
  332. Codec ID                                 : S_HDMV/PGS
  333. Codec ID/Info                            : Picture based subtitle format used on BDs/HD-DVDs
  334. Duration                                 : 2 h 5 min
  335. Bit rate                                 : 19.4 kb/s
  336. Count of elements                        : 2210
  337. Stream size                              : 17.4 MiB (0%)
  338. Title                                    : Latvian-PGS
  339. Language                                 : Latvian
  340. Default                                  : No
  341. Forced                                   : No
  342. Text #19
  343. ID                                       : 23
  344. Format                                   : PGS
  345. Muxing mode                              : zlib
  346. Codec ID                                 : S_HDMV/PGS
  347. Codec ID/Info                            : Picture based subtitle format used on BDs/HD-DVDs
  348. Duration                                 : 2 h 5 min
  349. Bit rate                                 : 20.4 kb/s
  350. Count of elements                        : 2363
  351. Stream size                              : 18.3 MiB (0%)
  352. Title                                    : Lithuanian-PGS
  353. Language                                 : Lithuanian
  354. Default                                  : No
  355. Forced                                   : No
  356. Text #20
  357. ID                                       : 24
  358. Format                                   : PGS
  359. Muxing mode                              : zlib
  360. Codec ID                                 : S_HDMV/PGS
  361. Codec ID/Info                            : Picture based subtitle format used on BDs/HD-DVDs
  362. Duration                                 : 2 h 11 min
  363. Bit rate                                 : 18.9 kb/s
  364. Count of elements                        : 2444
  365. Stream size                              : 17.8 MiB (0%)
  366. Title                                    : Norwegian-PGS
  367. Language                                 : Norwegian
  368. Default                                  : No
  369. Forced                                   : No
  370. Text #21
  371. ID                                       : 25
  372. Format                                   : PGS
  373. Muxing mode                              : zlib
  374. Codec ID                                 : S_HDMV/PGS
  375. Codec ID/Info                            : Picture based subtitle format used on BDs/HD-DVDs
  376. Duration                                 : 2 h 5 min
  377. Bit rate                                 : 20.0 kb/s
  378. Count of elements                        : 2424
  379. Stream size                              : 18.0 MiB (0%)
  380. Title                                    : Polish-PGS
  381. Language                                 : Polish
  382. Default                                  : No
  383. Forced                                   : No
  384. Text #22
  385. ID                                       : 26
  386. Format                                   : PGS
  387. Muxing mode                              : zlib
  388. Codec ID                                 : S_HDMV/PGS
  389. Codec ID/Info                            : Picture based subtitle format used on BDs/HD-DVDs
  390. Duration                                 : 2 h 11 min
  391. Bit rate                                 : 20.9 kb/s
  392. Count of elements                        : 2439
  393. Stream size                              : 19.7 MiB (0%)
  394. Title                                    : Portuguese-PGS
  395. Language                                 : Portuguese
  396. Default                                  : No
  397. Forced                                   : No
  398. Text #23
  399. ID                                       : 27
  400. Format                                   : PGS
  401. Muxing mode                              : zlib
  402. Codec ID                                 : S_HDMV/PGS
  403. Codec ID/Info                            : Picture based subtitle format used on BDs/HD-DVDs
  404. Duration                                 : 2 h 5 min
  405. Bit rate                                 : 19.4 kb/s
  406. Count of elements                        : 2364
  407. Stream size                              : 17.4 MiB (0%)
  408. Title                                    : Romanian-PGS
  409. Language                                 : Romanian
  410. Default                                  : No
  411. Forced                                   : No
  412. Text #24
  413. ID                                       : 28
  414. Format                                   : PGS
  415. Muxing mode                              : zlib
  416. Codec ID                                 : S_HDMV/PGS
  417. Codec ID/Info                            : Picture based subtitle format used on BDs/HD-DVDs
  418. Duration                                 : 2 h 5 min
  419. Bit rate                                 : 20.1 kb/s
  420. Count of elements                        : 2428
  421. Stream size                              : 18.0 MiB (0%)
  422. Title                                    : Russian-PGS
  423. Language                                 : Russian
  424. Default                                  : No
  425. Forced                                   : No
  426. Text #25
  427. ID                                       : 29
  428. Format                                   : PGS
  429. Muxing mode                              : zlib
  430. Codec ID                                 : S_HDMV/PGS
  431. Codec ID/Info                            : Picture based subtitle format used on BDs/HD-DVDs
  432. Duration                                 : 2 h 5 min
  433. Bit rate                                 : 18.6 kb/s
  434. Count of elements                        : 2424
  435. Stream size                              : 16.7 MiB (0%)
  436. Title                                    : Slovenian-PGS
  437. Language                                 : Slovenian
  438. Default                                  : No
  439. Forced                                   : No
  440. Text #26
  441. ID                                       : 30
  442. Format                                   : PGS
  443. Muxing mode                              : zlib
  444. Codec ID                                 : S_HDMV/PGS
  445. Codec ID/Info                            : Picture based subtitle format used on BDs/HD-DVDs
  446. Duration                                 : 2 h 11 min
  447. Bit rate                                 : 19.2 kb/s
  448. Count of elements                        : 2442
  449. Stream size                              : 18.1 MiB (0%)
  450. Title                                    : Sewdish-PGS
  451. Language                                 : Swedish
  452. Default                                  : No
  453. Forced                                   : No
  454. Text #27
  455. ID                                       : 31
  456. Format                                   : PGS
  457. Muxing mode                              : zlib
  458. Codec ID                                 : S_HDMV/PGS
  459. Codec ID/Info                            : Picture based subtitle format used on BDs/HD-DVDs
  460. Duration                                 : 2 h 5 min
  461. Bit rate                                 : 21.1 kb/s
  462. Count of elements                        : 2452
  463. Stream size                              : 19.0 MiB (0%)
  464. Title                                    : Thai-PGS
  465. Language                                 : Thai
  466. Default                                  : No
  467. Forced                                   : No
  468. Text #28
  469. ID                                       : 32
  470. Format                                   : PGS
  471. Muxing mode                              : zlib
  472. Codec ID                                 : S_HDMV/PGS
  473. Codec ID/Info                            : Picture based subtitle format used on BDs/HD-DVDs
  474. Duration                                 : 2 h 5 min
  475. Bit rate                                 : 20.4 kb/s
  476. Count of elements                        : 2422
  477. Stream size                              : 18.4 MiB (0%)
  478. Title                                    : Turkish-PGS
  479. Language                                 : Turkish
  480. Default                                  : No
  481. Forced                                   : No
  482. Menu
  483. 00:00:00.000                             : en:Chapter 01
  484. 00:06:48.741                             : en:Chapter 02
  485. 00:14:44.049                             : en:Chapter 03
  486. 00:24:02.858                             : en:Chapter 04
  487. 00:32:42.168                             : en:Chapter 05
  488. 00:43:36.739                             : en:Chapter 06
  489. 00:51:51.858                             : en:Chapter 07
  490. 00:58:05.899                             : en:Chapter 08
  491. 01:04:33.911                             : en:Chapter 09
  492. 01:08:30.564                             : en:Chapter 10
  493. 01:18:00.634                             : en:Chapter 11
  494. 01:27:03.885                             : en:Chapter 12
  495. 01:38:20.436                             : en:Chapter 13
  496. 01:45:13.807                             : en:Chapter 14
  497. 01:50:08.143                             : en:Chapter 15
  498. 01:58:40.029                             : en:Chapter 16
复制代码











                                       
                                       

                                       
                                       
                                       




回复

使用道具 举报

懒得打字嘛,点击右侧快捷回复 【右侧内容,后台自定义】
您需要登录后才可以回帖 登录 | 立即加入

本版积分规则

Copyright © 2024 Comsenz Inc. Powered by 蓝光电影网

本站内容由用户自主分享和转载自互联网,转载目的在于传递更多信息,并不代表本网赞同其观点和对其真实性负责。

如有侵权、违反国家法律政策行为,请联系我们,我们会第一时间及时清除和处理!

举报反馈邮箱:4k1080.com@gmail.com

快速回复 返回顶部 返回列表