找回密码

蓝光电影网

查看: 947|回复: 0

[2160p] 神奇女侠:血脉 Wonder.Woman.Bloodlines.2019.2160p.BluRay.x264.8bit.SDR.DTS-HD.MA.5.1-SWTYBLZ 7.49GB

[复制链接]
蓝光币
1704
发表于 2019-10-12 02:54:02 | 显示全部楼层 |阅读模式


◎译  名 奇异女侠:血脉
◎片  名 Wonder Woman: Bloodlines
◎年  代 2019
◎产  地 美国
◎类  别 动画 / 奇异
◎语  言 英语
◎上映日期 2019-10-05(美国)
◎IMDb评分  4.6/10 from 7 users
◎IMDb链接  http://www.imdb.com/title/tt8752498
◎豆瓣评分 0/10 from 0 users
◎豆瓣链接 https://movie.douban.com/subject/30286098/
◎片  长 83分钟
◎导  演 贾斯汀·科普兰 Justin Copeland / 刘山姆 Sam Liu
◎编  剧 威廉·马斯顿 William M. Marston / 麦格里德·斯科特 Mairghread Scott
◎主  演 罗莎里奥·道森 Rosario Dawson
       玛莉·艾格洛蒲露丝 Marie Avgeropoulos
       艾德丽安·C·摩尔 Adrienne C. Moore
       杰弗里·多诺万 Jeffrey Donovan
       克里·萨莫 Cree Summer
       迈克尔·多恩 Michael Dorn
       康斯坦斯·齐默 Constance Zimmer
       莫赞·玛诺 Mozhan Marnò
       妮娅·瓦达拉斯 Nia Vardalos
       柯特奈·泰勒 Courtenay Taylor
       雷·蔡斯 Ray Chase
       Kimberly Brooks

◎标  签 DC | 动画 | 奇异女侠 | 2019 | 美国 | DC动漫 | 漫改 | DCAMU
◎简  介  
  该部电影是2009年以来的第二部“奇异女侠”动画电影,电影首要报告奇异女侠奇异女侠要从致命犯罪的构造帮助一位深陷麻烦的女孩,而这个构造的方针是入侵奇异女侠的故乡天堂岛。
  罗莎里奥·道森将继续为奇异女侠配音,本片将有银天鹅、豹女、毒药博士和巨化女等奇异女侠典范反派退场。
  1. Video
  2. ID                                       : 1
  3. Format                                   : AVC
  4. Format/Info                              : Advanced Video Codec
  5. Format profile                           : [email protected]
  6. Format settings                          : CABAC / 5 Ref Frames
  7. Format settings, CABAC                   : Yes
  8. Format settings, Reference frames        : 5 frames
  9. Codec ID                                 : V_MPEG4/ISO/AVC
  10. Duration                                 : 1 h 22 min
  11. Bit rate                                 : 9 866 kb/s
  12. Width                                    : 3 840 pixels
  13. Height                                   : 2 160 pixels
  14. Display aspect ratio                     : 16:9
  15. Frame rate mode                          : Constant
  16. Frame rate                               : 23.976 (24000/1001) FPS
  17. Color space                              : YUV
  18. Chroma subsampling                       : 4:2:0
  19. Bit depth                                : 8 bits
  20. Scan type                                : Progressive
  21. Bits/(Pixel*Frame)                       : 0.050
  22. Stream size                              : 5.71 GiB (77%)
  23. Title                                    : Wonder.Woman.Bloodlines.2019.2160p.BluRay.x264.8bit.SDR.DTS-HD.MA.5.1-SWTYBLZ
  24. Writing library                          : x264 core 157 r2935 545de2f
  25. Encoding settings                        : cabac=1 / ref=5 / deblock=1:1:1 / analyse=0x3:0x113 / me=umh / subme=10 / psy=1 / psy_rd=0.40:0.00 / mixed_ref=1 / me_range=48 / chroma_me=1 / trellis=2 / 8x8dct=1 / cqm=0 / deadzone=21,11 / fast_pskip=1 / chroma_qp_offset=-2 / threads=67 / lookahead_threads=7 / sliced_threads=0 / nr=0 / decimate=0 / interlaced=0 / bluray_compat=0 / constrained_intra=0 / bframes=5 / b_pyramid=2 / b_adapt=2 / b_bias=0 / direct=3 / weightb=1 / open_gop=0 / weightp=2 / keyint=250 / keyint_min=23 / scenecut=40 / intra_refresh=0 / rc_lookahead=50 / rc=crf / mbtree=1 / crf=14.0 / qcomp=0.60 / qpmin=0 / qpmax=69 / qpstep=4 / ip_ratio=1.40 / aq=1:0.60
  26. Language                                 : English
  27. Default                                  : Yes
  28. Forced                                   : No
  29. Audio #1
  30. ID                                       : 2
  31. Format                                   : DTS XLL
  32. Format/Info                              : Digital Theater Systems
  33. Commercial name                          : DTS-HD Master Audio
  34. Codec ID                                 : A_DTS
  35. Duration                                 : 1 h 22 min
  36. Bit rate mode                            : Variable
  37. Bit rate                                 : 2 329 kb/s
  38. Channel(s)                               : 6 channels
  39. Channel layout                           : C L R Ls Rs LFE
  40. Sampling rate                            : 48.0 kHz
  41. Frame rate                               : 93.750 FPS (512 SPF)
  42. Bit depth                                : 24 bits
  43. Compression mode                         : Lossless
  44. Stream size                              : 1.35 GiB (18%)
  45. Title                                    : Wonder.Woman.Bloodlines.2019.2160p.BluRay.x264.8bit.SDR.DTS-HD.MA.5.1-SWTYBLZ
  46. Language                                 : English
  47. Default                                  : Yes
  48. Forced                                   : No
  49. Audio #2
  50. ID                                       : 3
  51. Format                                   : AC-3
  52. Format/Info                              : Audio Coding 3
  53. Commercial name                          : Dolby Digital
  54. Codec ID                                 : A_AC3
  55. Duration                                 : 1 h 22 min
  56. Bit rate mode                            : Constant
  57. Bit rate                                 : 640 kb/s
  58. Channel(s)                               : 6 channels
  59. Channel layout                           : L R C LFE Ls Rs
  60. Sampling rate                            : 48.0 kHz
  61. Frame rate                               : 31.250 FPS (1536 SPF)
  62. Bit depth                                : 16 bits
  63. Compression mode                         : Lossy
  64. Stream size                              : 379 MiB (5%)
  65. Title                                    : Wonder.Woman.Bloodlines.2019.2160p.BluRay.x264.8bit.SDR.DTS-HD.MA.5.1-SWTYBLZ
  66. Language                                 : English
  67. Service kind                             : Complete Main
  68. Default                                  : No
  69. Forced                                   : No
  70. Text #1
  71. ID                                       : 4
  72. Format                                   : UTF-8
  73. Codec ID                                 : S_TEXT/UTF8
  74. Codec ID/Info                            : UTF-8 Plain Text
  75. Duration                                 : 1 h 19 min
  76. Bit rate                                 : 46 b/s
  77. Count of elements                        : 958
  78. Stream size                              : 27.2 KiB (0%)
  79. Title                                    : English-SRT
  80. Language                                 : English
  81. Default                                  : Yes
  82. Forced                                   : No
  83. Text #2
  84. ID                                       : 5
  85. Format                                   : PGS
  86. Muxing mode                              : zlib
  87. Codec ID                                 : S_HDMV/PGS
  88. Codec ID/Info                            : Picture based subtitle format used on BDs/HD-DVDs
  89. Duration                                 : 1 h 19 min
  90. Bit rate                                 : 31.1 kb/s
  91. Count of elements                        : 2326
  92. Stream size                              : 17.8 MiB (0%)
  93. Title                                    : English-PGS
  94. Language                                 : English
  95. Default                                  : No
  96. Forced                                   : No
  97. Text #3
  98. ID                                       : 6
  99. Format                                   : PGS
  100. Muxing mode                              : zlib
  101. Codec ID                                 : S_HDMV/PGS
  102. Codec ID/Info                            : Picture based subtitle format used on BDs/HD-DVDs
  103. Duration                                 : 1 h 21 min
  104. Bit rate                                 : 26.5 kb/s
  105. Count of elements                        : 1944
  106. Stream size                              : 15.5 MiB (0%)
  107. Title                                    : French-PGS
  108. Language                                 : French
  109. Default                                  : No
  110. Forced                                   : No
  111. Text #4
  112. ID                                       : 7
  113. Format                                   : PGS
  114. Muxing mode                              : zlib
  115. Codec ID                                 : S_HDMV/PGS
  116. Codec ID/Info                            : Picture based subtitle format used on BDs/HD-DVDs
  117. Duration                                 : 1 h 21 min
  118. Bit rate                                 : 26.7 kb/s
  119. Count of elements                        : 1948
  120. Stream size                              : 15.6 MiB (0%)
  121. Title                                    : Spanish-PGS
  122. Language                                 : Spanish
  123. Default                                  : No
  124. Forced                                   : No
  125. Menu
  126. 00:00:00.000                             : en:Chapter 01
  127. 00:10:04.395                             : en:Chapter 02
  128. 00:19:53.484                             : en:Chapter 03
  129. 00:28:26.538                             : en:Chapter 04
  130. 00:38:44.030                             : en:Chapter 05
  131. 00:47:37.229                             : en:Chapter 06
  132. 00:54:35.314                             : en:Chapter 07
  133. 01:03:48.158                             : en:Chapter 08
  134. 01:12:13.287                             : en:Chapter 09
  135. 01:17:54.837                             : en:Chapter 10
复制代码










                                       
                                       

                                       
                                       
                                       




回复

使用道具 举报

懒得打字嘛,点击右侧快捷回复 【右侧内容,后台自定义】
您需要登录后才可以回帖 登录 | 立即加入

本版积分规则

Archiver|小黑屋| 蓝光电影网 |网站地图

Copyright © 2021 Comsenz Inc. Powered by 蓝光电影网

蓝光电影网

本站内容由用户自主分享和转载自互联网,转载目的在于传递更多信息,并不代表本网赞同其观点和对其真实性负责。

如有侵权、违反国家法律政策行为,请联系我们,我们会第一时间及时清除和处理!

举报反馈邮箱:4k1080.com@gmail.com

快速回复 返回顶部 返回列表