找回密码

蓝光电影网

查看: 909|回复: 0

[剧情] 法蒂玛/法蒂玛的奇迹 Fatima.2020.1080p.WEBRip.DD5.1.x264-CM 4.64GB

[复制链接]
蓝光币
1704
发表于 2021-8-20 00:56:03 | 显示全部楼层 |阅读模式


◎译  名 法蒂玛/法蒂玛的奇迹(台)
◎片  名 Fatima
◎年  代 2020
◎产  地 葡萄牙,美国
◎类  别 剧情
◎语  言 英语
◎上映日期 2020-08-14(加拿大) / 2020-08-28(美国)
◎IMDb评分  7.4/10 from 45 users
◎IMDb链接  https://www.imdb.com/title/tt2197936/
◎豆瓣评分 /10 from 0 users
◎豆瓣链接 https://movie.douban.com/subject/27046731/
◎片  长 113分钟
◎导  演 马克·彭特克沃 Marco Pontecorvo
◎编  剧 Barbara Nicolosi / 马克·彭特克沃 Marco Pontecorvo
◎主  演 哈威·凯特尔 Harvey Keitel
       高兰·维斯耶克 Goran Visnjic
       索尼娅·布拉加 Sonia Braga
       乔昆姆·德·阿尔梅达 Joaquim de Almeida
       露西娅·莫尼斯 Lúcia Moniz
       乔安娜·里贝罗 Joana Ribeiro
       阿尔芭·巴普蒂斯塔 Alba Baptista
       约翰·尤海斯 Jo?o Arrais
       马可·德阿尔梅达 Marco D'Almeida
       Dinarte de Freitas
       安娜·莫雷拉 Ana Moreira
       Victor Emanuel
       路易莎·克鲁兹 Luísa Cruz
       Carla Chambel
       Isabel Ruth
       Sim?o Cayatte
       玛丽亚·德雷斯 Maria d'Aires
       Carmen Santos
       Margarida Cardeal
       Jo?o D'ávila
       José Eduardo
       埃尔马诺·桑丘 Elmano Sancho
       Paula Luiz
       Sofia Espírito Santo
       Luisa Ortigoso
       Manuel Moreira
◎标  签 宗教 | 葡萄牙 | 天主教 | 印持十字 | 没看▲▲▲▲▲▲▲▲▲▲
◎简  介


  哈威·凯特尔、索尼娅·布拉加([水瓶座])将出演新片[法蒂玛]。该片按照实在事务改编,报告在葡萄牙法蒂玛,三个孩子宣称目击了圣母玛利亚显灵,并预言了灾难行未到临。其中两人在1917-1918年死于流感病毒,而他们在前一个星期才接管了教皇的洗礼。该片将由马克·彭特克沃([天气晴偶然多云])执导,今朝正处建造阶段。
  1. Video
  2. ID                                       : 1
  3. Format                                   : AVC
  4. Format/Info                              : Advanced Video Codec
  5. Format profile                           : [email protected]
  6. Format settings                          : CABAC / 2 Ref Frames
  7. Format settings, CABAC                   : Yes
  8. Format settings, Reference frames        : 2 frames
  9. Codec ID                                 : V_MPEG4/ISO/AVC
  10. Duration                                 : 1 h 53 min
  11. Bit rate                                 : 5 478 kb/s
  12. Width                                    : 1 920 pixels
  13. Height                                   : 1 080 pixels
  14. Display aspect ratio                     : 16:9
  15. Frame rate mode                          : Constant
  16. Frame rate                               : 23.976 (24000/1001/189150) FPS
  17. Color space                              : YUV
  18. Chroma subsampling                       : 4:2:0
  19. Bit depth                                : 8 bits
  20. Scan type                                : Progressive
  21. Bits/(Pixel*Frame)                       : 0.110
  22. Stream size                              : 4.34 GiB (93%)
  23. Writing library                          : x264 core 155 r2901 7d0ff22
  24. Default                                  : Yes
  25. Forced                                   : No
  26. Color range                              : Limited
  27. Color primaries                          : BT.709
  28. Transfer characteristics                 : BT.709
  29. Matrix coefficients                      : BT.709
  30. Audio
  31. ID                                       : 2
  32. Format                                   : AC-3
  33. Format/Info                              : Audio Coding 3
  34. Commercial name                          : Dolby Digital
  35. Codec ID                                 : A_AC3
  36. Duration                                 : 1 h 53 min
  37. Bit rate mode                            : Constant
  38. Bit rate                                 : 384 kb/s
  39. Channel(s)                               : 6 channels
  40. Channel layout                           : L R C LFE Ls Rs
  41. Sampling rate                            : 48.0 kHz
  42. Frame rate                               : 31.250 FPS (1536 SPF)
  43. Compression mode                         : Lossy
  44. Stream size                              : 311 MiB (7%)
  45. Language                                 : English
  46. Service kind                             : Complete Main
  47. Default                                  : Yes
  48. Forced                                   : No
  49. Text
  50. ID                                       : 3
  51. Format                                   : UTF-8
  52. Codec ID                                 : S_TEXT/UTF8
  53. Codec ID/Info                            : UTF-8 Plain Text
  54. Duration                                 : 1 h 47 min
  55. Bit rate                                 : 42 b/s
  56. Count of elements                        : 1082
  57. Stream size                              : 33.4 KiB (0%)
  58. Language                                 : English
  59. Default                                  : Yes
  60. Forced                                   : No
复制代码






                                       
                                       

                                       
                                       
                                       




回复

使用道具 举报

懒得打字嘛,点击右侧快捷回复 【右侧内容,后台自定义】
您需要登录后才可以回帖 登录 | 立即加入

本版积分规则

Archiver|小黑屋| 蓝光电影网 |网站地图

Copyright © 2021 Comsenz Inc. Powered by 蓝光电影网

蓝光电影网

本站内容由用户自主分享和转载自互联网,转载目的在于传递更多信息,并不代表本网赞同其观点和对其真实性负责。

如有侵权、违反国家法律政策行为,请联系我们,我们会第一时间及时清除和处理!

举报反馈邮箱:4k1080.com@gmail.com

快速回复 返回顶部 返回列表