找回密码

查看: 1008|回复: 0

[UHD.HEVC] 惊魂记/精神病人 Psycho.1960.UNCUT.2160p.BluRay.REMUX.HEVC.DTS-X.7.1-FGT 52.10GB

[复制链接]
蓝光币
1840
发表于 2020-9-12 18:46:40 | 显示全部楼层 |阅读模式


◎译  名 惊魂记/神经病人/神经病患者/惊心动魄(港)
◎片  名 Psycho
◎年  代 1960
◎产  地 美国
◎类  别 悬疑 / 惊悚 / 可骇
◎语  言 英语
◎上映日期 1960-06-16(纽约首映) / 1960-09-08(美国)
◎IMDb评分  8.5/10 from 587649 users
◎IMDb链接  https://www.imdb.com/title/tt0054215/
◎豆瓣评分 9.0/10 from 178313 users
◎豆瓣链接 https://movie.douban.com/subject/1293181/
◎片  长 109分钟
◎导  演 阿尔弗雷德·希区柯克 Alfred Hitchcock
◎编  剧 约瑟夫·斯蒂凡诺 Joseph Stefano / 罗伯特·布洛克 Robert Bloch
◎主  演 安东尼·博金斯 Anthony Perkins
       维拉·迈尔斯 Vera Miles
       约翰·加文 John Gavin
       珍妮特·利 Janet Leigh
       马丁·鲍尔萨姆 Martin Balsam
       约翰·麦克因泰 John McIntire
       西蒙·奥克兰 Simon Oakland
       弗兰克·艾伯森 Frank Albertson
       帕特里夏·希区柯克 Patricia Hitchcock
       沃恩·泰勒 Vaughn Taylor
       卢伦·塔特尔 Lurene Tuttle
       约翰·安德森 John Anderson
       莫特·米尔斯 Mort Mills
       吉特·卡森 Kit Carson
       维吉尼亚·格雷格 Virginia Gregg
       阿尔弗雷德·希区柯克 Alfred Hitchcock
       珍妮特·诺兰 Jeanette Nolan
       罗伯特奥斯本 Robert Osborne
       海伦·华莱士 Helen Wallace
       Walter Bacon
       Francis De Sales
       George Dockstader
       George Eldredge
       Harper Flaherty
       萨姆·弗林特 Sam Flint
       Frank Killmond
       泰德·奈特 Ted Knight
       Pat McCaffrie
       Hans-Joachim Moebis
       Fred Scheiwiller
◎标  签 希区柯克 | 悬疑 | 惊悚 | 典范 | 美国 | 心理 | 1960 | AlfredHitchcock
◎简  介


  年轻的马里恩·克兰(珍妮特·利 饰)在Phoenix工作,深受老板洛厄里(沃恩·泰勒 饰)信赖。男友萨姆·卢米斯(约翰·加文 饰)在Fairvale经营一家五金店,因要替亡父还债又要付出前妻供养费而有力再婚,只能借出差的机遇偶然来与马里恩幽会。马里恩对此感应不满,因而在周五下午乘隙携四万美圆公款驾车潜逃。可是马里恩的潜逃之路并不顺遂:先是在出城的时辰被洛厄里目击,周六一大早又被差人思疑。花了七百美圆以旧车换新车以后,马里恩继续忐忑地行驶。入夜后,天降大雨,视野模糊,没法行驶,马里恩只得将车泊入路边的贝茨汽车旅店投宿。老板诺尔曼(安东尼·珀金斯 饰)非常和睦,试图约请马里恩抵家里共进晚饭,惋惜被凶暴的母亲粗鲁阻止,只得将晚饭端至旅店客厅。马里恩在客厅一边进餐一边与诺尔曼扳谈,终究决议周日返回Phoenix。用餐终了,马里恩回房洗澡。这时,一个老妇的身影忽然出现在洗手间……
◎获奖情况
  第33届奥斯卡金像奖 ?(1961)
  最好导演(提名) 阿尔弗雷德·希区柯克
  最好女配角(提名) 珍妮特·利
  黑白片最好摄影(提名) 约翰·L·拉塞尔
  黑白片最好艺术指导和布景(提名) JosephHurley?/?乔治·米洛?/?RobertClatworthy
  
  第18届金球奖 ?(1961)
  电影类最好女配角 珍妮特·利
  1. Video
  2. ID                                       : 1
  3. ID in the original source medium         : 4113 (0x1011)
  4. Format                                   : HEVC
  5. Format/Info                              : High Efficiency Video Coding
  6. Format profile                           : Main [email protected]@High
  7. HDR format                               : SMPTE ST 2086, HDR10 compatible
  8. Codec ID                                 : V_MPEGH/ISO/HEVC
  9. Duration                                 : 1 h 49 min
  10. Bit rate                                 : 63.4 Mb/s
  11. Width                                    : 3 840 pixels
  12. Height                                   : 2 160 pixels
  13. Display aspect ratio                     : 16:9
  14. Frame rate mode                          : Constant
  15. Frame rate                               : 23.976 (24000/1001/189150) FPS
  16. Color space                              : YUV
  17. Chroma subsampling                       : 4:2:0 (Type 2)
  18. Bit depth                                : 10 bits
  19. Bits/(Pixel*Frame)                       : 0.319
  20. Stream size                              : 48.3 GiB (93%)
  21. Title                                    : Psycho.1960.UNCUT.2160p.BluRay.REMUX.HEVC.DTS-X.7.1-FGT
  22. Writing library                          : ATEME Titan File 3.9.6 (4.9.6.2)        
  23. Language                                 : English
  24. Default                                  : No
  25. Forced                                   : No
  26. Color range                              : Limited
  27. Color primaries                          : BT.2020
  28. Transfer characteristics                 : PQ
  29. Matrix coefficients                      : BT.2020 non-constant
  30. Mastering display color primaries        : Display P3
  31. Mastering display luminance              : min: 0.0050 cd/m2, max: 1000 cd/m2
  32. Maximum Content Light Level              : 1000 cd/m2
  33. Maximum Frame-Average Light Level        : 76 cd/m2
  34. Original source medium                   : Blu-ray
  35. Audio #1
  36. ID                                       : 2
  37. ID in the original source medium         : 4352 (0x1100)
  38. Format                                   : DTS XLL X
  39. Format/Info                              : Digital Theater Systems
  40. Commercial name                          : DTS-HD Master Audio
  41. Codec ID                                 : A_DTS
  42. Duration                                 : 1 h 49 min
  43. Bit rate mode                            : Variable
  44. Bit rate                                 : 3 376 kb/s
  45. Channel(s)                               : 8 channels
  46. Channel(s)_Original                      : Object Based
  47. ChannelLayout_Original                   : Object Based
  48. Sampling rate                            : 48.0 kHz
  49. Frame rate                               : 93.750 FPS (512 SPF)
  50. Bit depth                                : 24 bits
  51. Stream size                              : 2.57 GiB (5%)
  52. Title                                    : Psycho.1960.UNCUT.2160p.BluRay.REMUX.HEVC.DTS-X.7.1-FGT
  53. Language                                 : English
  54. Default                                  : Yes
  55. Forced                                   : No
  56. Original source medium                   : Blu-ray
  57. Audio #2
  58. ID                                       : 3
  59. ID in the original source medium         : 4354 (0x1102)
  60. Format                                   : DTS
  61. Format/Info                              : Digital Theater Systems
  62. Codec ID                                 : A_DTS
  63. Duration                                 : 1 h 49 min
  64. Bit rate mode                            : Constant
  65. Bit rate                                 : 447 kb/s
  66. Channel(s)                               : 2 channels
  67. Channel layout                           : L R
  68. Sampling rate                            : 48.0 kHz
  69. Frame rate                               : 93.750 FPS (512 SPF)
  70. Bit depth                                : 24 bits
  71. Compression mode                         : Lossy
  72. Stream size                              : 349 MiB (1%)
  73. Title                                    : Psycho.1960.UNCUT.2160p.BluRay.REMUX.HEVC.DTS-X.7.1-FGT
  74. Language                                 : English
  75. Default                                  : No
  76. Forced                                   : No
  77. Original source medium                   : Blu-ray
  78. Audio #3
  79. ID                                       : 4
  80. ID in the original source medium         : 4355 (0x1103)
  81. Format                                   : DTS
  82. Format/Info                              : Digital Theater Systems
  83. Codec ID                                 : A_DTS
  84. Duration                                 : 1 h 49 min
  85. Bit rate mode                            : Constant
  86. Bit rate                                 : 447 kb/s
  87. Channel(s)                               : 2 channels
  88. Channel layout                           : L R
  89. Sampling rate                            : 48.0 kHz
  90. Frame rate                               : 93.750 FPS (512 SPF)
  91. Bit depth                                : 24 bits
  92. Compression mode                         : Lossy
  93. Stream size                              : 349 MiB (1%)
  94. Title                                    : Psycho.1960.UNCUT.2160p.BluRay.REMUX.HEVC.DTS-X.7.1-FGT
  95. Language                                 : Spanish
  96. Default                                  : No
  97. Forced                                   : No
  98. Original source medium                   : Blu-ray
  99. Audio #4
  100. ID                                       : 5
  101. ID in the original source medium         : 4357 (0x1105)
  102. Format                                   : DTS
  103. Format/Info                              : Digital Theater Systems
  104. Codec ID                                 : A_DTS
  105. Duration                                 : 1 h 49 min
  106. Bit rate mode                            : Constant
  107. Bit rate                                 : 447 kb/s
  108. Channel(s)                               : 2 channels
  109. Channel layout                           : L R
  110. Sampling rate                            : 48.0 kHz
  111. Frame rate                               : 93.750 FPS (512 SPF)
  112. Bit depth                                : 24 bits
  113. Compression mode                         : Lossy
  114. Stream size                              : 349 MiB (1%)
  115. Title                                    : Psycho.1960.UNCUT.2160p.BluRay.REMUX.HEVC.DTS-X.7.1-FGT
  116. Language                                 : French
  117. Default                                  : No
  118. Forced                                   : No
  119. Original source medium                   : Blu-ray
  120. Audio #5
  121. ID                                       : 6
  122. ID in the original source medium         : 4359 (0x1107)
  123. Format                                   : AC-3
  124. Format/Info                              : Audio Coding 3
  125. Commercial name                          : Dolby Digital
  126. Codec ID                                 : A_AC3
  127. Duration                                 : 1 h 49 min
  128. Bit rate mode                            : Constant
  129. Bit rate                                 : 192 kb/s
  130. Channel(s)                               : 2 channels
  131. Channel layout                           : L R
  132. Sampling rate                            : 48.0 kHz
  133. Frame rate                               : 31.250 FPS (1536 SPF)
  134. Compression mode                         : Lossy
  135. Stream size                              : 150 MiB (0%)
  136. Title                                    : Psycho.1960.UNCUT.2160p.BluRay.REMUX.HEVC.DTS-X.7.1-FGT
  137. Language                                 : English
  138. Service kind                             : Complete Main
  139. Default                                  : No
  140. Forced                                   : No
  141. Original source medium                   : Blu-ray
  142. Text #1
  143. ID                                       : 7
  144. Format                                   : UTF-8
  145. Codec ID                                 : S_TEXT/UTF8
  146. Codec ID/Info                            : UTF-8 Plain Text
  147. Duration                                 : 1 h 45 min
  148. Bit rate                                 : 54 b/s
  149. Count of elements                        : 1132
  150. Stream size                              : 42.2 KiB (0%)
  151. Title                                    : English-SRT
  152. Language                                 : English
  153. Default                                  : Yes
  154. Forced                                   : No
  155. Text #2
  156. ID                                       : 8
  157. ID in the original source medium         : 4768 (0x12A0)
  158. Format                                   : PGS
  159. Muxing mode                              : zlib
  160. Codec ID                                 : S_HDMV/PGS
  161. Codec ID/Info                            : Picture based subtitle format used on BDs/HD-DVDs
  162. Duration                                 : 1 h 45 min
  163. Bit rate                                 : 36.5 kb/s
  164. Count of elements                        : 2428
  165. Stream size                              : 27.6 MiB (0%)
  166. Title                                    : English-PGS
  167. Language                                 : English
  168. Default                                  : No
  169. Forced                                   : No
  170. Original source medium                   : Blu-ray
  171. Text #3
  172. ID                                       : 9
  173. ID in the original source medium         : 4769 (0x12A1)
  174. Format                                   : PGS
  175. Muxing mode                              : zlib
  176. Codec ID                                 : S_HDMV/PGS
  177. Codec ID/Info                            : Picture based subtitle format used on BDs/HD-DVDs
  178. Duration                                 : 1 h 46 min
  179. Bit rate                                 : 31.6 kb/s
  180. Count of elements                        : 2050
  181. Stream size                              : 24.0 MiB (0%)
  182. Title                                    : Spanish-PGS
  183. Language                                 : Spanish
  184. Default                                  : No
  185. Forced                                   : No
  186. Original source medium                   : Blu-ray
  187. Text #4
  188. ID                                       : 10
  189. ID in the original source medium         : 4770 (0x12A2)
  190. Format                                   : PGS
  191. Muxing mode                              : zlib
  192. Codec ID                                 : S_HDMV/PGS
  193. Codec ID/Info                            : Picture based subtitle format used on BDs/HD-DVDs
  194. Duration                                 : 1 h 46 min
  195. Bit rate                                 : 33.5 kb/s
  196. Count of elements                        : 2092
  197. Stream size                              : 25.5 MiB (0%)
  198. Title                                    : French-PGS
  199. Language                                 : French
  200. Default                                  : No
  201. Forced                                   : No
  202. Original source medium                   : Blu-ray
  203. Text #5
  204. ID                                       : 11
  205. ID in the original source medium         : 4771 (0x12A3)
  206. Format                                   : PGS
  207. Muxing mode                              : zlib
  208. Codec ID                                 : S_HDMV/PGS
  209. Codec ID/Info                            : Picture based subtitle format used on BDs/HD-DVDs
  210. Duration                                 : 1 h 46 min
  211. Bit rate                                 : 164 b/s
  212. Count of elements                        : 28
  213. Stream size                              : 128 KiB (0%)
  214. Title                                    : Spanish-FORCED-PGS
  215. Language                                 : Spanish
  216. Default                                  : No
  217. Forced                                   : No
  218. Original source medium                   : Blu-ray
  219. Text #6
  220. ID                                       : 12
  221. ID in the original source medium         : 4772 (0x12A4)
  222. Format                                   : PGS
  223. Muxing mode                              : zlib
  224. Codec ID                                 : S_HDMV/PGS
  225. Codec ID/Info                            : Picture based subtitle format used on BDs/HD-DVDs
  226. Duration                                 : 1 h 46 min
  227. Bit rate                                 : 177 b/s
  228. Count of elements                        : 26
  229. Stream size                              : 138 KiB (0%)
  230. Title                                    : French-FORCED-PGS
  231. Language                                 : French
  232. Default                                  : No
  233. Forced                                   : No
  234. Original source medium                   : Blu-ray
  235. Menu
  236. 00:00:00.000                             : en:Chapter 01
  237. 00:02:20.306                             : en:Chapter 02
  238. 00:07:00.044                             : en:Chapter 03
  239. 00:11:06.624                             : en:Chapter 04
  240. 00:14:00.506                             : en:Chapter 05
  241. 00:17:54.156                             : en:Chapter 06
  242. 00:26:32.674                             : en:Chapter 07
  243. 00:34:50.922                             : en:Chapter 08
  244. 00:38:35.021                             : en:Chapter 09
  245. 00:46:43.592                             : en:Chapter 10
  246. 00:49:36.932                             : en:Chapter 11
  247. 00:58:51.486                             : en:Chapter 12
  248. 01:00:25.872                             : en:Chapter 13
  249. 01:04:10.888                             : en:Chapter 14
  250. 01:06:41.330                             : en:Chapter 15
  251. 01:12:35.267                             : en:Chapter 16
  252. 01:16:41.972                             : en:Chapter 17
  253. 01:17:52.834                             : en:Chapter 18
  254. 01:20:29.741                             : en:Chapter 19
  255. 01:23:48.314                             : en:Chapter 20
  256. 01:27:05.637                             : en:Chapter 21
  257. 01:32:18.908                             : en:Chapter 22
  258. 01:35:21.882                             : en:Chapter 23
  259. 01:41:03.515                             : en:Chapter 24
  260. 01:42:08.997                             : en:Chapter 25
  261. 01:47:29.359                             : en:Chapter 26
复制代码



                                       
                                       

                                       
                                       
                                       




回复

使用道具 举报

懒得打字嘛,点击右侧快捷回复 【右侧内容,后台自定义】
您需要登录后才可以回帖 登录 | 立即加入

本版积分规则

Copyright © 2024 Comsenz Inc. Powered by 蓝光电影网

本站内容由用户自主分享和转载自互联网,转载目的在于传递更多信息,并不代表本网赞同其观点和对其真实性负责。

如有侵权、违反国家法律政策行为,请联系我们,我们会第一时间及时清除和处理!

举报反馈邮箱:4k1080.com@gmail.com

快速回复 返回顶部 返回列表