找回密码

查看: 1146|回复: 0

[UHD.HEVC] 美丽星球/一个美丽的星球 A.Beautiful.Planet.2016.DOCU.2160p.BluRay.REMUX.HEVC.DTS-X.7.1-FGT 19.98GB

[复制链接]
蓝光币
1840
发表于 2020-9-3 21:36:39 | 显示全部楼层 |阅读模式


◎译  名 美丽星球/一个美丽的星球
◎片  名 A Beautiful Planet
◎年  代 2016
◎产  地 美国
◎类  别 记载片
◎语  言 英语
◎上映日期 2016-04-29(美国)
◎IMDb评分  7.4/10 from 1098 users
◎IMDb链接  https://www.imdb.com/title/tt2800050/
◎豆瓣评分 8.5/10 from 482 users
◎豆瓣链接 https://movie.douban.com/subject/25850676/
◎片  长 40分钟
◎主  演 詹妮弗·劳伦斯 Jennifer Lawrence
◎标  签 记载片 | 太空 | 美国 | IMAX | NASA | 2016 | JenniferLawrence | 星际
◎简  介


  影片经过国际空间站宇航员的视角近间隔显现摄民气魄的地球美景,同时带您一同探访这个美丽星球的未来样子。在这段冲动听心的举世之旅中,您将看到日益美丽的湛蓝地球,伴着游若细丝的浮云,在阳光下闪闪发光。
  1. Video
  2. ID                                       : 1
  3. ID in the original source medium         : 4113 (0x1011)
  4. Format                                   : HEVC
  5. Format/Info                              : High Efficiency Video Coding
  6. Format profile                           : Main [email protected]@High
  7. HDR format                               : SMPTE ST 2094 App 4, Version 1, HDR10+ Profile A compatible
  8. Codec ID                                 : V_MPEGH/ISO/HEVC
  9. Duration                                 : 46 min 17 s
  10. Bit rate                                 : 45.6 Mb/s
  11. Width                                    : 3 840 pixels
  12. Height                                   : 2 160 pixels
  13. Display aspect ratio                     : 16:9
  14. Frame rate mode                          : Constant
  15. Frame rate                               : 23.976 (24000/1001/189150) FPS
  16. Color space                              : YUV
  17. Chroma subsampling                       : 4:2:0 (Type 2)
  18. Bit depth                                : 10 bits
  19. Bits/(Pixel*Frame)                       : 0.229
  20. Stream size                              : 14.8 GiB (74%)
  21. Title                                    : A.Beautiful.Planet.2016.DOCU.2160p.BluRay.REMUX.HEVC.DTS-X.7.1-FGT
  22. Language                                 : English
  23. Default                                  : No
  24. Forced                                   : No
  25. Color range                              : Limited
  26. Color primaries                          : BT.2020
  27. Transfer characteristics                 : PQ
  28. Matrix coefficients                      : BT.2020 non-constant
  29. Mastering display color primaries        : BT.2020
  30. Mastering display luminance              : min: 0.0000 cd/m2, max: 1000 cd/m2
  31. Maximum Content Light Level              : 2279 cd/m2
  32. Maximum Frame-Average Light Level        : 256 cd/m2
  33. Original source medium                   : Blu-ray
  34. Audio #1
  35. ID                                       : 2
  36. ID in the original source medium         : 4352 (0x1100)
  37. Format                                   : DTS XLL
  38. Format/Info                              : Digital Theater Systems
  39. Commercial name                          : DTS-HD Master Audio
  40. Codec ID                                 : A_DTS
  41. Duration                                 : 46 min 17 s
  42. Bit rate mode                            : Variable
  43. Bit rate                                 : 7 848 kb/s
  44. Channel(s)                               : 8 channels
  45. Channel layout                           : C L R LFE Lb Rb Lss Rss
  46. Sampling rate                            : 48.0 kHz
  47. Frame rate                               : 93.750 FPS (512 SPF)
  48. Bit depth                                : 24 bits
  49. Compression mode                         : Lossless
  50. Stream size                              : 2.54 GiB (13%)
  51. Title                                    : A.Beautiful.Planet.2016.DOCU.2160p.BluRay.REMUX.HEVC.DTS-X.7.1-FGT
  52. Language                                 : English
  53. Default                                  : Yes
  54. Forced                                   : No
  55. Original source medium                   : Blu-ray
  56. Audio #2
  57. ID                                       : 3
  58. ID in the original source medium         : 4353 (0x1101)
  59. Format                                   : DTS XLL
  60. Format/Info                              : Digital Theater Systems
  61. Commercial name                          : DTS-HD Master Audio
  62. Codec ID                                 : A_DTS
  63. Duration                                 : 46 min 17 s
  64. Bit rate mode                            : Variable
  65. Bit rate                                 : 4 135 kb/s
  66. Channel(s)                               : 8 channels
  67. Channel layout                           : C L R LFE Lb Rb Lss Rss
  68. Sampling rate                            : 48.0 kHz
  69. Frame rate                               : 93.750 FPS (512 SPF)
  70. Bit depth                                : 24 bits
  71. Compression mode                         : Lossless
  72. Stream size                              : 1.34 GiB (7%)
  73. Title                                    : A.Beautiful.Planet.2016.DOCU.2160p.BluRay.REMUX.HEVC.DTS-X.7.1-FGT
  74. Language                                 : French
  75. Default                                  : No
  76. Forced                                   : No
  77. Original source medium                   : Blu-ray
  78. Audio #3
  79. ID                                       : 4
  80. ID in the original source medium         : 4354 (0x1102)
  81. Format                                   : DTS XLL
  82. Format/Info                              : Digital Theater Systems
  83. Commercial name                          : DTS-HD Master Audio
  84. Codec ID                                 : A_DTS
  85. Duration                                 : 46 min 17 s
  86. Bit rate mode                            : Variable
  87. Bit rate                                 : 4 126 kb/s
  88. Channel(s)                               : 8 channels
  89. Channel layout                           : C L R LFE Lb Rb Lss Rss
  90. Sampling rate                            : 48.0 kHz
  91. Frame rate                               : 93.750 FPS (512 SPF)
  92. Bit depth                                : 24 bits
  93. Compression mode                         : Lossless
  94. Stream size                              : 1.33 GiB (7%)
  95. Title                                    : A.Beautiful.Planet.2016.DOCU.2160p.BluRay.REMUX.HEVC.DTS-X.7.1-FGT
  96. Language                                 : Spanish
  97. Default                                  : No
  98. Forced                                   : No
  99. Original source medium                   : Blu-ray
  100. Text #1
  101. ID                                       : 5
  102. Format                                   : UTF-8
  103. Codec ID                                 : S_TEXT/UTF8
  104. Codec ID/Info                            : UTF-8 Plain Text
  105. Duration                                 : 44 min 34 s
  106. Bit rate                                 : 78 b/s
  107. Count of elements                        : 716
  108. Stream size                              : 25.7 KiB (0%)
  109. Title                                    : English-SRT
  110. Language                                 : English
  111. Default                                  : Yes
  112. Forced                                   : No
  113. Text #2
  114. ID                                       : 6
  115. ID in the original source medium         : 4768 (0x12A0)
  116. Format                                   : PGS
  117. Muxing mode                              : zlib
  118. Codec ID                                 : S_HDMV/PGS
  119. Codec ID/Info                            : Picture based subtitle format used on BDs/HD-DVDs
  120. Duration                                 : 46 min 8 s
  121. Bit rate                                 : 38.7 kb/s
  122. Count of elements                        : 1474
  123. Stream size                              : 12.8 MiB (0%)
  124. Title                                    : English-PGS
  125. Language                                 : English
  126. Default                                  : No
  127. Forced                                   : No
  128. Original source medium                   : Blu-ray
  129. Text #3
  130. ID                                       : 7
  131. ID in the original source medium         : 4769 (0x12A1)
  132. Format                                   : PGS
  133. Muxing mode                              : zlib
  134. Codec ID                                 : S_HDMV/PGS
  135. Codec ID/Info                            : Picture based subtitle format used on BDs/HD-DVDs
  136. Duration                                 : 44 min 34 s
  137. Bit rate                                 : 44.5 kb/s
  138. Count of elements                        : 1573
  139. Stream size                              : 14.2 MiB (0%)
  140. Title                                    : French-PGS
  141. Language                                 : French
  142. Default                                  : No
  143. Forced                                   : No
  144. Original source medium                   : Blu-ray
  145. Text #4
  146. ID                                       : 8
  147. ID in the original source medium         : 4770 (0x12A2)
  148. Format                                   : PGS
  149. Muxing mode                              : zlib
  150. Codec ID                                 : S_HDMV/PGS
  151. Codec ID/Info                            : Picture based subtitle format used on BDs/HD-DVDs
  152. Duration                                 : 44 min 35 s
  153. Bit rate                                 : 39.7 kb/s
  154. Count of elements                        : 1413
  155. Stream size                              : 12.7 MiB (0%)
  156. Title                                    : Spanish-PGS
  157. Language                                 : Spanish
  158. Default                                  : No
  159. Forced                                   : No
  160. Original source medium                   : Blu-ray
  161. Menu
  162. 00:00:00.000                             : en:Chapter 01
  163. 00:05:37.462                             : en:Chapter 02
  164. 00:16:51.260                             : en:Chapter 03
  165. 00:28:30.083                             : en:Chapter 04
  166. 00:39:35.873                             : en:Chapter 05
  167. 00:44:24.203                             : en:Chapter 06
复制代码



                                       
                                       

                                       
                                       
                                       




相关帖子

回复

使用道具 举报

懒得打字嘛,点击右侧快捷回复 【右侧内容,后台自定义】
您需要登录后才可以回帖 登录 | 立即加入

本版积分规则

Copyright © 2024 Comsenz Inc. Powered by 蓝光电影网

本站内容由用户自主分享和转载自互联网,转载目的在于传递更多信息,并不代表本网赞同其观点和对其真实性负责。

如有侵权、违反国家法律政策行为,请联系我们,我们会第一时间及时清除和处理!

举报反馈邮箱:4k1080.com@gmail.com

快速回复 返回顶部 返回列表