找回密码

蓝光电影网

查看: 944|回复: 0

[UHD.HEVC] 生化危机2:启示录/恶灵古堡II:启示录 Resident.Evil.Apocalypse.2004.EXTENDED.2160p.BluRay.REMUX.HEVC.DTS-HD.MA.TrueHD.7.1.Atmos-FGT 44.96GB

[复制链接]
蓝光币
1432
发表于 2020-11-13 10:14:24 | 显示全部楼层 |阅读模式


◎译  名 生化危机2:启迪录/恶灵古堡II:启迪录/生化危机之消灭生还者
◎片  名 Resident Evil: Apocalypse
◎年  代 2004
◎产  地 德国,法国,英国,加拿大,美国
◎类  别 行动 / 科幻 / 可骇
◎语  言 英语
◎上映日期 2004-09-10(加拿大/美国)
◎IMDb评分  6.2/10 from 184543 users
◎IMDb链接  https://www.imdb.com/title/tt0318627/
◎豆瓣评分 7.9/10 from 186320 users
◎豆瓣链接 https://movie.douban.com/subject/1308752/
◎片  长 94分钟
◎导  演 亚历山大·维特 Alexander Witt
◎编  剧 保罗·安德森 Paul W.S. Anderson
◎主  演 米拉·乔沃维奇 Milla Jovovich
       西耶娜·盖尔利 Sienna Guillory
       奥德·菲尔 Oded Fehr
       托马斯·克莱舒曼 Thomas Kretschmann
       索菲·瓦瓦塞尔 Sophie Vavasseur
       何家蓓 Sandrine Holt
       泰德·路德齐克 Ted Ludzik
       埃里克·马比斯 Eric Mabius
       迈克·艾普斯 Mike Epps
       Tom Gerhardt
       伊恩·格雷 Iain Glen
       扎克·沃德 Zack Ward
       Malcolm Xerxes
       雷萨克·艾多堤 Razaaq Adoti
       Marc Gagne
       蒂姆·伯德 Tim Burd
       Pierre Henry
       Janessa Crimi
       Jazz Mann
       Michael C. Newsome
       Jeffrey Weedon
       阿隆·艾布拉姆斯 Aaron Abrams
       Christopher Weedon
       安贝儿·马绍尔 Amber Marshall
       Melanie Tonello
       斯蒂芬·R·哈特 Stephen R. Hart
       杰瑞德·哈里斯 Jared Harris
       梅根·法伦布克 Megan Fahlenbock
       Ben Moody
       Frank Chiesurin
◎标  签 科幻 | 生化危机 | 美国 | 行动 | 惊悚 | 可骇 | 丧尸 | 游戏改编
◎简  介


  T病毒在蜂巢中肆虐并很快打破了空中上浣熊市的安静,丧尸起头在人群中出现,安布雷拉公司将全部城市封锁,计划利用核兵器摧毁城市以袒护病毒外泄的究竟。被安布雷拉注射T病毒使身材才能远超凡人的爱丽丝(米拉·乔沃维奇 Milla Jovovich 饰)由昏睡中醒来,她在紊乱的浣熊市与防卫队员瓦伦汀(Sienna Guillory 饰)、记者泰莉等人组成队伍,试图找到脱身之法。另一方面,安布雷拉公司的科学家艾肯佛博士为搭救被公司抛弃在城中的女儿安琪拉,以供给逃生方式为价格请求爱丽丝和防卫职员卡洛斯(Oded Fehr 饰)两组人马帮助。而安布雷拉公司派出了由环保份子麦特所革新成的“复仇邪神”阻止这一切……
  
  本片获2005年加拿大吉尼奖最好音效剪辑奖、金盘奖。是生化危机系列电影的第二部。
  1. Video
  2. ID                                       : 1
  3. ID in the original source medium         : 4113 (0x1011)
  4. Format                                   : HEVC
  5. Format/Info                              : High Efficiency Video Coding
  6. Format profile                           : Main [email protected]@High
  7. HDR format                               : SMPTE ST 2086, HDR10 compatible
  8. Codec ID                                 : V_MPEGH/ISO/HEVC
  9. Duration                                 : 1 h 37 min
  10. Bit rate                                 : 51.0 Mb/s
  11. Width                                    : 3 840 pixels
  12. Height                                   : 2 160 pixels
  13. Display aspect ratio                     : 16:9
  14. Frame rate mode                          : Constant
  15. Frame rate                               : 23.976 (24000/1001/189150) FPS
  16. Color space                              : YUV
  17. Chroma subsampling                       : 4:2:0 (Type 2)
  18. Bit depth                                : 10 bits
  19. Bits/(Pixel*Frame)                       : 0.257
  20. Stream size                              : 34.8 GiB (77%)
  21. Title                                    : Resident.Evil.Apocalypse.2004.EXTENDED.2160p.BluRay.REMUX.HEVC.DTS-HD.MA.TrueHD.7.1.Atmos-FGT
  22. Language                                 : English
  23. Default                                  : No
  24. Forced                                   : No
  25. Color range                              : Limited
  26. Color primaries                          : BT.2020
  27. Transfer characteristics                 : PQ
  28. Matrix coefficients                      : BT.2020 non-constant
  29. Mastering display color primaries        : Display P3
  30. Mastering display luminance              : min: 0.0050 cd/m2, max: 4000 cd/m2
  31. Maximum Content Light Level              : 992 cd/m2
  32. Maximum Frame-Average Light Level        : 781 cd/m2
  33. Original source medium                   : Blu-ray
  34. Audio #1
  35. ID                                       : 2
  36. ID in the original source medium         : 4352 (0x1100)
  37. Format                                   : MLP FBA 16-ch
  38. Format/Info                              : Meridian Lossless Packing FBA with 16-channel presentation
  39. Commercial name                          : Dolby TrueHD with Dolby Atmos
  40. Codec ID                                 : A_TRUEHD
  41. Duration                                 : 1 h 37 min
  42. Bit rate mode                            : Variable
  43. Bit rate                                 : 3 467 kb/s
  44. Maximum bit rate                         : 6 033 kb/s
  45. Channel(s)                               : 8 channels
  46. Channel layout                           : L R C LFE Ls Rs Lb Rb
  47. Sampling rate                            : 48.0 kHz
  48. Frame rate                               : 1 200.000 FPS (40 SPF)
  49. Compression mode                         : Lossless
  50. Stream size                              : 2.37 GiB (5%)
  51. Title                                    : Resident.Evil.Apocalypse.2004.EXTENDED.2160p.BluRay.REMUX.HEVC.DTS-HD.MA.TrueHD.7.1.Atmos-FGT
  52. Language                                 : English
  53. Default                                  : Yes
  54. Forced                                   : No
  55. Original source medium                   : Blu-ray
  56. Number of dynamic objects                : 11
  57. Bed channel count                        : 1 channel
  58. Bed channel configuration                : LFE
  59. Audio #2
  60. ID                                       : 3
  61. Format                                   : DTS XLL
  62. Format/Info                              : Digital Theater Systems
  63. Commercial name                          : DTS-HD Master Audio
  64. Codec ID                                 : A_DTS
  65. Duration                                 : 1 h 37 min
  66. Bit rate mode                            : Variable
  67. Bit rate                                 : 4 478 kb/s
  68. Channel(s)                               : 8 channels
  69. Channel layout                           : C L R LFE Lb Rb Lss Rss
  70. Sampling rate                            : 48.0 kHz
  71. Frame rate                               : 93.750 FPS (512 SPF)
  72. Bit depth                                : 24 bits
  73. Compression mode                         : Lossless
  74. Stream size                              : 3.06 GiB (7%)
  75. Title                                    : Resident.Evil.Apocalypse.2004.EXTENDED.2160p.BluRay.REMUX.HEVC.DTS-HD.MA.TrueHD.7.1.Atmos-FGT
  76. Default                                  : No
  77. Forced                                   : No
  78. Audio #3
  79. ID                                       : 4
  80. ID in the original source medium         : 4352 (0x1100)
  81. Format                                   : AC-3
  82. Format/Info                              : Audio Coding 3
  83. Commercial name                          : Dolby Digital
  84. Codec ID                                 : A_AC3
  85. Duration                                 : 1 h 37 min
  86. Bit rate mode                            : Constant
  87. Bit rate                                 : 640 kb/s
  88. Channel(s)                               : 6 channels
  89. Channel layout                           : L R C LFE Ls Rs
  90. Sampling rate                            : 48.0 kHz
  91. Frame rate                               : 31.250 FPS (1536 SPF)
  92. Compression mode                         : Lossy
  93. Stream size                              : 448 MiB (1%)
  94. Title                                    : Resident.Evil.Apocalypse.2004.EXTENDED.2160p.BluRay.REMUX.HEVC.DTS-HD.MA.TrueHD.7.1.Atmos-FGT
  95. Language                                 : English
  96. Service kind                             : Complete Main
  97. Default                                  : No
  98. Forced                                   : No
  99. Original source medium                   : Blu-ray
  100. Audio #4
  101. ID                                       : 5
  102. ID in the original source medium         : 4354 (0x1102)
  103. Format                                   : AC-3
  104. Format/Info                              : Audio Coding 3
  105. Commercial name                          : Dolby Digital
  106. Codec ID                                 : A_AC3
  107. Duration                                 : 1 h 37 min
  108. Bit rate mode                            : Constant
  109. Bit rate                                 : 192 kb/s
  110. Channel(s)                               : 2 channels
  111. Channel layout                           : L R
  112. Sampling rate                            : 48.0 kHz
  113. Frame rate                               : 31.250 FPS (1536 SPF)
  114. Compression mode                         : Lossy
  115. Stream size                              : 134 MiB (0%)
  116. Title                                    : Resident.Evil.Apocalypse.2004.EXTENDED.2160p.BluRay.REMUX.HEVC.DTS-HD.MA.TrueHD.7.1.Atmos-FGT
  117. Language                                 : English
  118. Service kind                             : Complete Main
  119. Default                                  : No
  120. Forced                                   : No
  121. Original source medium                   : Blu-ray
  122. Audio #5
  123. ID                                       : 6
  124. ID in the original source medium         : 4355 (0x1103)
  125. Format                                   : AC-3
  126. Format/Info                              : Audio Coding 3
  127. Commercial name                          : Dolby Digital
  128. Codec ID                                 : A_AC3
  129. Duration                                 : 1 h 37 min
  130. Bit rate mode                            : Constant
  131. Bit rate                                 : 640 kb/s
  132. Channel(s)                               : 6 channels
  133. Channel layout                           : L R C LFE Ls Rs
  134. Sampling rate                            : 48.0 kHz
  135. Frame rate                               : 31.250 FPS (1536 SPF)
  136. Compression mode                         : Lossy
  137. Stream size                              : 448 MiB (1%)
  138. Title                                    : Resident.Evil.Apocalypse.2004.EXTENDED.2160p.BluRay.REMUX.HEVC.DTS-HD.MA.TrueHD.7.1.Atmos-FGT
  139. Language                                 : French
  140. Service kind                             : Complete Main
  141. Default                                  : No
  142. Forced                                   : No
  143. Original source medium                   : Blu-ray
  144. Audio #6
  145. ID                                       : 7
  146. ID in the original source medium         : 4356 (0x1104)
  147. Format                                   : AC-3
  148. Format/Info                              : Audio Coding 3
  149. Commercial name                          : Dolby Digital
  150. Codec ID                                 : A_AC3
  151. Duration                                 : 1 h 37 min
  152. Bit rate mode                            : Constant
  153. Bit rate                                 : 640 kb/s
  154. Channel(s)                               : 6 channels
  155. Channel layout                           : L R C LFE Ls Rs
  156. Sampling rate                            : 48.0 kHz
  157. Frame rate                               : 31.250 FPS (1536 SPF)
  158. Compression mode                         : Lossy
  159. Stream size                              : 448 MiB (1%)
  160. Title                                    : Resident.Evil.Apocalypse.2004.EXTENDED.2160p.BluRay.REMUX.HEVC.DTS-HD.MA.TrueHD.7.1.Atmos-FGT
  161. Language                                 : French
  162. Service kind                             : Complete Main
  163. Default                                  : No
  164. Forced                                   : No
  165. Original source medium                   : Blu-ray
  166. Audio #7
  167. ID                                       : 8
  168. ID in the original source medium         : 4357 (0x1105)
  169. Format                                   : AC-3
  170. Format/Info                              : Audio Coding 3
  171. Commercial name                          : Dolby Digital
  172. Codec ID                                 : A_AC3
  173. Duration                                 : 1 h 37 min
  174. Bit rate mode                            : Constant
  175. Bit rate                                 : 640 kb/s
  176. Channel(s)                               : 6 channels
  177. Channel layout                           : L R C LFE Ls Rs
  178. Sampling rate                            : 48.0 kHz
  179. Frame rate                               : 31.250 FPS (1536 SPF)
  180. Compression mode                         : Lossy
  181. Stream size                              : 448 MiB (1%)
  182. Title                                    : Resident.Evil.Apocalypse.2004.EXTENDED.2160p.BluRay.REMUX.HEVC.DTS-HD.MA.TrueHD.7.1.Atmos-FGT
  183. Language                                 : Hindi
  184. Service kind                             : Complete Main
  185. Default                                  : No
  186. Forced                                   : No
  187. Original source medium                   : Blu-ray
  188. Audio #8
  189. ID                                       : 9
  190. ID in the original source medium         : 4358 (0x1106)
  191. Format                                   : AC-3
  192. Format/Info                              : Audio Coding 3
  193. Commercial name                          : Dolby Digital
  194. Codec ID                                 : A_AC3
  195. Duration                                 : 1 h 37 min
  196. Bit rate mode                            : Constant
  197. Bit rate                                 : 640 kb/s
  198. Channel(s)                               : 6 channels
  199. Channel layout                           : L R C LFE Ls Rs
  200. Sampling rate                            : 48.0 kHz
  201. Frame rate                               : 31.250 FPS (1536 SPF)
  202. Compression mode                         : Lossy
  203. Stream size                              : 448 MiB (1%)
  204. Title                                    : Resident.Evil.Apocalypse.2004.EXTENDED.2160p.BluRay.REMUX.HEVC.DTS-HD.MA.TrueHD.7.1.Atmos-FGT
  205. Language                                 : Italian
  206. Service kind                             : Complete Main
  207. Default                                  : No
  208. Forced                                   : No
  209. Original source medium                   : Blu-ray
  210. Audio #9
  211. ID                                       : 10
  212. ID in the original source medium         : 4359 (0x1107)
  213. Format                                   : AC-3
  214. Format/Info                              : Audio Coding 3
  215. Commercial name                          : Dolby Digital
  216. Codec ID                                 : A_AC3
  217. Duration                                 : 1 h 37 min
  218. Bit rate mode                            : Constant
  219. Bit rate                                 : 640 kb/s
  220. Channel(s)                               : 6 channels
  221. Channel layout                           : L R C LFE Ls Rs
  222. Sampling rate                            : 48.0 kHz
  223. Frame rate                               : 31.250 FPS (1536 SPF)
  224. Compression mode                         : Lossy
  225. Stream size                              : 448 MiB (1%)
  226. Title                                    : Resident.Evil.Apocalypse.2004.EXTENDED.2160p.BluRay.REMUX.HEVC.DTS-HD.MA.TrueHD.7.1.Atmos-FGT
  227. Language                                 : Japanese
  228. Service kind                             : Complete Main
  229. Default                                  : No
  230. Forced                                   : No
  231. Original source medium                   : Blu-ray
  232. Audio #10
  233. ID                                       : 11
  234. ID in the original source medium         : 4360 (0x1108)
  235. Format                                   : AC-3
  236. Format/Info                              : Audio Coding 3
  237. Commercial name                          : Dolby Digital
  238. Codec ID                                 : A_AC3
  239. Duration                                 : 1 h 37 min
  240. Bit rate mode                            : Constant
  241. Bit rate                                 : 640 kb/s
  242. Channel(s)                               : 6 channels
  243. Channel layout                           : L R C LFE Ls Rs
  244. Sampling rate                            : 48.0 kHz
  245. Frame rate                               : 31.250 FPS (1536 SPF)
  246. Compression mode                         : Lossy
  247. Stream size                              : 448 MiB (1%)
  248. Title                                    : Resident.Evil.Apocalypse.2004.EXTENDED.2160p.BluRay.REMUX.HEVC.DTS-HD.MA.TrueHD.7.1.Atmos-FGT
  249. Language                                 : Polish
  250. Service kind                             : Complete Main
  251. Default                                  : No
  252. Forced                                   : No
  253. Original source medium                   : Blu-ray
  254. Audio #11
  255. ID                                       : 12
  256. ID in the original source medium         : 4361 (0x1109)
  257. Format                                   : AC-3
  258. Format/Info                              : Audio Coding 3
  259. Commercial name                          : Dolby Digital
  260. Codec ID                                 : A_AC3
  261. Duration                                 : 1 h 37 min
  262. Bit rate mode                            : Constant
  263. Bit rate                                 : 640 kb/s
  264. Channel(s)                               : 6 channels
  265. Channel layout                           : L R C LFE Ls Rs
  266. Sampling rate                            : 48.0 kHz
  267. Frame rate                               : 31.250 FPS (1536 SPF)
  268. Compression mode                         : Lossy
  269. Stream size                              : 448 MiB (1%)
  270. Title                                    : Resident.Evil.Apocalypse.2004.EXTENDED.2160p.BluRay.REMUX.HEVC.DTS-HD.MA.TrueHD.7.1.Atmos-FGT
  271. Language                                 : Portuguese
  272. Service kind                             : Complete Main
  273. Default                                  : No
  274. Forced                                   : No
  275. Original source medium                   : Blu-ray
  276. Audio #12
  277. ID                                       : 13
  278. ID in the original source medium         : 4362 (0x110A)
  279. Format                                   : AC-3
  280. Format/Info                              : Audio Coding 3
  281. Commercial name                          : Dolby Digital
  282. Codec ID                                 : A_AC3
  283. Duration                                 : 1 h 37 min
  284. Bit rate mode                            : Constant
  285. Bit rate                                 : 640 kb/s
  286. Channel(s)                               : 6 channels
  287. Channel layout                           : L R C LFE Ls Rs
  288. Sampling rate                            : 48.0 kHz
  289. Frame rate                               : 31.250 FPS (1536 SPF)
  290. Compression mode                         : Lossy
  291. Stream size                              : 448 MiB (1%)
  292. Title                                    : Resident.Evil.Apocalypse.2004.EXTENDED.2160p.BluRay.REMUX.HEVC.DTS-HD.MA.TrueHD.7.1.Atmos-FGT
  293. Language                                 : Spanish
  294. Service kind                             : Complete Main
  295. Default                                  : No
  296. Forced                                   : No
  297. Original source medium                   : Blu-ray
  298. Audio #13
  299. ID                                       : 14
  300. ID in the original source medium         : 4363 (0x110B)
  301. Format                                   : AC-3
  302. Format/Info                              : Audio Coding 3
  303. Commercial name                          : Dolby Digital
  304. Codec ID                                 : A_AC3
  305. Duration                                 : 1 h 37 min
  306. Bit rate mode                            : Constant
  307. Bit rate                                 : 640 kb/s
  308. Channel(s)                               : 6 channels
  309. Channel layout                           : L R C LFE Ls Rs
  310. Sampling rate                            : 48.0 kHz
  311. Frame rate                               : 31.250 FPS (1536 SPF)
  312. Compression mode                         : Lossy
  313. Stream size                              : 448 MiB (1%)
  314. Title                                    : Resident.Evil.Apocalypse.2004.EXTENDED.2160p.BluRay.REMUX.HEVC.DTS-HD.MA.TrueHD.7.1.Atmos-FGT
  315. Language                                 : Spanish
  316. Service kind                             : Complete Main
  317. Default                                  : No
  318. Forced                                   : No
  319. Original source medium                   : Blu-ray
  320. Text #1
  321. ID                                       : 15
  322. Format                                   : UTF-8
  323. Codec ID                                 : S_TEXT/UTF8
  324. Codec ID/Info                            : UTF-8 Plain Text
  325. Duration                                 : 1 h 31 min
  326. Bit rate                                 : 31 b/s
  327. Count of elements                        : 716
  328. Stream size                              : 21.1 KiB (0%)
  329. Title                                    : English-SRT
  330. Language                                 : English
  331. Default                                  : Yes
  332. Forced                                   : No
  333. Text #2
  334. ID                                       : 16
  335. ID in the original source medium         : 4768 (0x12A0)
  336. Format                                   : PGS
  337. Muxing mode                              : zlib
  338. Codec ID                                 : S_HDMV/PGS
  339. Codec ID/Info                            : Picture based subtitle format used on BDs/HD-DVDs
  340. Duration                                 : 1 h 36 min
  341. Bit rate                                 : 22.3 kb/s
  342. Count of elements                        : 1869
  343. Stream size                              : 15.4 MiB (0%)
  344. Title                                    : English-SDhHPGS
  345. Language                                 : English
  346. Default                                  : No
  347. Forced                                   : No
  348. Original source medium                   : Blu-ray
  349. Text #3
  350. ID                                       : 17
  351. ID in the original source medium         : 4769 (0x12A1)
  352. Format                                   : PGS
  353. Muxing mode                              : zlib
  354. Codec ID                                 : S_HDMV/PGS
  355. Codec ID/Info                            : Picture based subtitle format used on BDs/HD-DVDs
  356. Duration                                 : 1 h 31 min
  357. Bit rate                                 : 18.6 kb/s
  358. Count of elements                        : 1432
  359. Stream size                              : 12.2 MiB (0%)
  360. Title                                    : English-PGS
  361. Language                                 : English
  362. Default                                  : No
  363. Forced                                   : No
  364. Original source medium                   : Blu-ray
  365. Text #4
  366. ID                                       : 18
  367. ID in the original source medium         : 4772 (0x12A4)
  368. Format                                   : PGS
  369. Muxing mode                              : zlib
  370. Codec ID                                 : S_HDMV/PGS
  371. Codec ID/Info                            : Picture based subtitle format used on BDs/HD-DVDs
  372. Duration                                 : 1 h 36 min
  373. Bit rate                                 : 10.7 kb/s
  374. Count of elements                        : 1556
  375. Stream size                              : 7.41 MiB (0%)
  376. Title                                    : Arabic-PGS
  377. Language                                 : Arabic
  378. Default                                  : No
  379. Forced                                   : No
  380. Original source medium                   : Blu-ray
  381. Text #5
  382. ID                                       : 19
  383. ID in the original source medium         : 4773 (0x12A5)
  384. Format                                   : PGS
  385. Muxing mode                              : zlib
  386. Codec ID                                 : S_HDMV/PGS
  387. Codec ID/Info                            : Picture based subtitle format used on BDs/HD-DVDs
  388. Duration                                 : 1 h 31 min
  389. Bit rate                                 : 17.4 kb/s
  390. Count of elements                        : 1564
  391. Stream size                              : 11.4 MiB (0%)
  392. Title                                    : Chinese-PGS
  393. Language                                 : Chinese
  394. Default                                  : No
  395. Forced                                   : No
  396. Original source medium                   : Blu-ray
  397. Text #6
  398. ID                                       : 20
  399. ID in the original source medium         : 4774 (0x12A6)
  400. Format                                   : PGS
  401. Muxing mode                              : zlib
  402. Codec ID                                 : S_HDMV/PGS
  403. Codec ID/Info                            : Picture based subtitle format used on BDs/HD-DVDs
  404. Duration                                 : 1 h 36 min
  405. Bit rate                                 : 16.3 kb/s
  406. Count of elements                        : 1568
  407. Stream size                              : 11.3 MiB (0%)
  408. Title                                    : Chinese-PGS
  409. Language                                 : Chinese
  410. Default                                  : No
  411. Forced                                   : No
  412. Original source medium                   : Blu-ray
  413. Text #7
  414. ID                                       : 21
  415. ID in the original source medium         : 4775 (0x12A7)
  416. Format                                   : PGS
  417. Muxing mode                              : zlib
  418. Codec ID                                 : S_HDMV/PGS
  419. Codec ID/Info                            : Picture based subtitle format used on BDs/HD-DVDs
  420. Duration                                 : 1 h 36 min
  421. Bit rate                                 : 15.2 kb/s
  422. Count of elements                        : 1262
  423. Stream size                              : 10.6 MiB (0%)
  424. Title                                    : Danish-PGS
  425. Language                                 : Danish
  426. Default                                  : No
  427. Forced                                   : No
  428. Original source medium                   : Blu-ray
  429. Text #8
  430. ID                                       : 22
  431. ID in the original source medium         : 4776 (0x12A8)
  432. Format                                   : PGS
  433. Muxing mode                              : zlib
  434. Codec ID                                 : S_HDMV/PGS
  435. Codec ID/Info                            : Picture based subtitle format used on BDs/HD-DVDs
  436. Duration                                 : 1 h 36 min
  437. Bit rate                                 : 18.0 kb/s
  438. Count of elements                        : 1498
  439. Stream size                              : 12.5 MiB (0%)
  440. Title                                    : Dutch-PGS
  441. Language                                 : Dutch
  442. Default                                  : No
  443. Forced                                   : No
  444. Original source medium                   : Blu-ray
  445. Text #9
  446. ID                                       : 23
  447. ID in the original source medium         : 4777 (0x12A9)
  448. Format                                   : PGS
  449. Muxing mode                              : zlib
  450. Codec ID                                 : S_HDMV/PGS
  451. Codec ID/Info                            : Picture based subtitle format used on BDs/HD-DVDs
  452. Duration                                 : 1 h 31 min
  453. Bit rate                                 : 16.3 kb/s
  454. Count of elements                        : 1340
  455. Stream size                              : 10.7 MiB (0%)
  456. Title                                    : Finnish-PGS
  457. Language                                 : Finnish
  458. Default                                  : No
  459. Forced                                   : No
  460. Original source medium                   : Blu-ray
  461. Text #10
  462. ID                                       : 24
  463. ID in the original source medium         : 4778 (0x12AA)
  464. Format                                   : PGS
  465. Muxing mode                              : zlib
  466. Codec ID                                 : S_HDMV/PGS
  467. Codec ID/Info                            : Picture based subtitle format used on BDs/HD-DVDs
  468. Duration                                 : 1 h 36 min
  469. Bit rate                                 : 19.8 kb/s
  470. Count of elements                        : 1590
  471. Stream size                              : 13.7 MiB (0%)
  472. Title                                    : French-PGS
  473. Language                                 : French
  474. Default                                  : No
  475. Forced                                   : No
  476. Original source medium                   : Blu-ray
  477. Text #11
  478. ID                                       : 25
  479. ID in the original source medium         : 4778 (0x12AA)
  480. Format                                   : PGS
  481. Muxing mode                              : zlib
  482. Codec ID                                 : S_HDMV/PGS
  483. Codec ID/Info                            : Picture based subtitle format used on BDs/HD-DVDs
  484. Duration                                 : 1 h 34 min
  485. Bit rate                                 : 2 448 b/s
  486. Count of elements                        : 206
  487. Stream size                              : 1.66 MiB (0%)
  488. Title                                    : French-FORCED-PGS
  489. Language                                 : French
  490. Default                                  : No
  491. Forced                                   : No
  492. Original source medium                   : Blu-ray
  493. Text #12
  494. ID                                       : 26
  495. ID in the original source medium         : 4779 (0x12AB)
  496. Format                                   : PGS
  497. Muxing mode                              : zlib
  498. Codec ID                                 : S_HDMV/PGS
  499. Codec ID/Info                            : Picture based subtitle format used on BDs/HD-DVDs
  500. Duration                                 : 1 h 31 min
  501. Bit rate                                 : 20.2 kb/s
  502. Count of elements                        : 1435
  503. Stream size                              : 13.3 MiB (0%)
  504. Title                                    : Greek-PGS
  505. Language                                 : Greek
  506. Default                                  : No
  507. Forced                                   : No
  508. Original source medium                   : Blu-ray
  509. Text #13
  510. ID                                       : 27
  511. ID in the original source medium         : 4780 (0x12AC)
  512. Format                                   : PGS
  513. Muxing mode                              : zlib
  514. Codec ID                                 : S_HDMV/PGS
  515. Codec ID/Info                            : Picture based subtitle format used on BDs/HD-DVDs
  516. Duration                                 : 1 h 31 min
  517. Bit rate                                 : 14.9 kb/s
  518. Count of elements                        : 1560
  519. Stream size                              : 9.82 MiB (0%)
  520. Title                                    : Hindi-PGS
  521. Language                                 : Hindi
  522. Default                                  : No
  523. Forced                                   : No
  524. Original source medium                   : Blu-ray
  525. Text #14
  526. ID                                       : 28
  527. ID in the original source medium         : 4780 (0x12AC)
  528. Format                                   : PGS
  529. Muxing mode                              : zlib
  530. Codec ID                                 : S_HDMV/PGS
  531. Codec ID/Info                            : Picture based subtitle format used on BDs/HD-DVDs
  532. Duration                                 : 1 h 21 min
  533. Bit rate                                 : 2 870 b/s
  534. Count of elements                        : 284
  535. Stream size                              : 1.67 MiB (0%)
  536. Title                                    : Hindi-FORCED-PGS
  537. Language                                 : Hindi
  538. Default                                  : No
  539. Forced                                   : No
  540. Original source medium                   : Blu-ray
  541. Text #15
  542. ID                                       : 29
  543. ID in the original source medium         : 4781 (0x12AD)
  544. Format                                   : PGS
  545. Muxing mode                              : zlib
  546. Codec ID                                 : S_HDMV/PGS
  547. Codec ID/Info                            : Picture based subtitle format used on BDs/HD-DVDs
  548. Duration                                 : 1 h 36 min
  549. Bit rate                                 : 19.6 kb/s
  550. Count of elements                        : 1430
  551. Stream size                              : 13.6 MiB (0%)
  552. Title                                    : Indonesian-PGS
  553. Language                                 : Indonesian
  554. Default                                  : No
  555. Forced                                   : No
  556. Original source medium                   : Blu-ray
  557. Text #16
  558. ID                                       : 30
  559. ID in the original source medium         : 4782 (0x12AE)
  560. Format                                   : PGS
  561. Muxing mode                              : zlib
  562. Codec ID                                 : S_HDMV/PGS
  563. Codec ID/Info                            : Picture based subtitle format used on BDs/HD-DVDs
  564. Duration                                 : 1 h 31 min
  565. Bit rate                                 : 20.4 kb/s
  566. Count of elements                        : 1562
  567. Stream size                              : 13.4 MiB (0%)
  568. Title                                    : Italian-PGS
  569. Language                                 : Italian
  570. Default                                  : No
  571. Forced                                   : No
  572. Original source medium                   : Blu-ray
  573. Text #17
  574. ID                                       : 31
  575. ID in the original source medium         : 4782 (0x12AE)
  576. Format                                   : PGS
  577. Muxing mode                              : zlib
  578. Codec ID                                 : S_HDMV/PGS
  579. Codec ID/Info                            : Picture based subtitle format used on BDs/HD-DVDs
  580. Duration                                 : 1 h 21 min
  581. Bit rate                                 : 4 117 b/s
  582. Count of elements                        : 274
  583. Stream size                              : 2.40 MiB (0%)
  584. Title                                    : Italian-FORCED-PGS
  585. Language                                 : Italian
  586. Default                                  : No
  587. Forced                                   : No
  588. Original source medium                   : Blu-ray
  589. Text #18
  590. ID                                       : 32
  591. ID in the original source medium         : 4783 (0x12AF)
  592. Format                                   : PGS
  593. Muxing mode                              : zlib
  594. Codec ID                                 : S_HDMV/PGS
  595. Codec ID/Info                            : Picture based subtitle format used on BDs/HD-DVDs
  596. Duration                                 : 1 h 31 min
  597. Bit rate                                 : 13.2 kb/s
  598. Count of elements                        : 1531
  599. Stream size                              : 8.71 MiB (0%)
  600. Title                                    : Japanese-PGS
  601. Language                                 : Japanese
  602. Default                                  : No
  603. Forced                                   : No
  604. Original source medium                   : Blu-ray
  605. Text #19
  606. ID                                       : 33
  607. ID in the original source medium         : 4784 (0x12B0)
  608. Format                                   : PGS
  609. Muxing mode                              : zlib
  610. Codec ID                                 : S_HDMV/PGS
  611. Codec ID/Info                            : Picture based subtitle format used on BDs/HD-DVDs
  612. Duration                                 : 1 h 36 min
  613. Bit rate                                 : 14.6 kb/s
  614. Count of elements                        : 1562
  615. Stream size                              : 10.1 MiB (0%)
  616. Title                                    : Korean-PGS
  617. Language                                 : Korean
  618. Default                                  : No
  619. Forced                                   : No
  620. Original source medium                   : Blu-ray
  621. Text #20
  622. ID                                       : 34
  623. ID in the original source medium         : 4785 (0x12B1)
  624. Format                                   : PGS
  625. Muxing mode                              : zlib
  626. Codec ID                                 : S_HDMV/PGS
  627. Codec ID/Info                            : Picture based subtitle format used on BDs/HD-DVDs
  628. Duration                                 : 1 h 31 min
  629. Bit rate                                 : 17.1 kb/s
  630. Count of elements                        : 1396
  631. Stream size                              : 11.2 MiB (0%)
  632. Title                                    : Norwegian-PGS
  633. Language                                 : Norwegian
  634. Default                                  : No
  635. Forced                                   : No
  636. Original source medium                   : Blu-ray
  637. Text #21
  638. ID                                       : 35
  639. ID in the original source medium         : 4786 (0x12B2)
  640. Format                                   : PGS
  641. Muxing mode                              : zlib
  642. Codec ID                                 : S_HDMV/PGS
  643. Codec ID/Info                            : Picture based subtitle format used on BDs/HD-DVDs
  644. Duration                                 : 1 h 36 min
  645. Bit rate                                 : 17.9 kb/s
  646. Count of elements                        : 1554
  647. Stream size                              : 12.4 MiB (0%)
  648. Title                                    : Polish-PGS
  649. Language                                 : Polish
  650. Default                                  : No
  651. Forced                                   : No
  652. Original source medium                   : Blu-ray
  653. Text #22
  654. ID                                       : 36
  655. ID in the original source medium         : 4786 (0x12B2)
  656. Format                                   : PGS
  657. Muxing mode                              : zlib
  658. Codec ID                                 : S_HDMV/PGS
  659. Codec ID/Info                            : Picture based subtitle format used on BDs/HD-DVDs
  660. Duration                                 : 1 h 33 min
  661. Bit rate                                 : 1 996 b/s
  662. Count of elements                        : 174
  663. Stream size                              : 1.33 MiB (0%)
  664. Title                                    : Polish-FORCED-PGS
  665. Language                                 : Polish
  666. Default                                  : No
  667. Forced                                   : No
  668. Original source medium                   : Blu-ray
  669. Text #23
  670. ID                                       : 37
  671. ID in the original source medium         : 4787 (0x12B3)
  672. Format                                   : PGS
  673. Muxing mode                              : zlib
  674. Codec ID                                 : S_HDMV/PGS
  675. Codec ID/Info                            : Picture based subtitle format used on BDs/HD-DVDs
  676. Duration                                 : 1 h 36 min
  677. Bit rate                                 : 17.8 kb/s
  678. Count of elements                        : 1548
  679. Stream size                              : 12.4 MiB (0%)
  680. Title                                    : Portuguese-PGS
  681. Language                                 : Portuguese
  682. Default                                  : No
  683. Forced                                   : No
  684. Original source medium                   : Blu-ray
  685. Text #24
  686. ID                                       : 38
  687. ID in the original source medium         : 4787 (0x12B3)
  688. Format                                   : PGS
  689. Muxing mode                              : zlib
  690. Codec ID                                 : S_HDMV/PGS
  691. Codec ID/Info                            : Picture based subtitle format used on BDs/HD-DVDs
  692. Duration                                 : 1 h 33 min
  693. Bit rate                                 : 2 107 b/s
  694. Count of elements                        : 176
  695. Stream size                              : 1.41 MiB (0%)
  696. Title                                    : Portuguese-FORCED-PGS
  697. Language                                 : Portuguese
  698. Default                                  : No
  699. Forced                                   : No
  700. Original source medium                   : Blu-ray
  701. Text #25
  702. ID                                       : 39
  703. ID in the original source medium         : 4788 (0x12B4)
  704. Format                                   : PGS
  705. Muxing mode                              : zlib
  706. Codec ID                                 : S_HDMV/PGS
  707. Codec ID/Info                            : Picture based subtitle format used on BDs/HD-DVDs
  708. Duration                                 : 1 h 36 min
  709. Bit rate                                 : 19.4 kb/s
  710. Count of elements                        : 1566
  711. Stream size                              : 13.4 MiB (0%)
  712. Title                                    : Portuguese-PGS
  713. Language                                 : Portuguese
  714. Default                                  : No
  715. Forced                                   : No
  716. Original source medium                   : Blu-ray
  717. Text #26
  718. ID                                       : 40
  719. ID in the original source medium         : 4788 (0x12B4)
  720. Format                                   : PGS
  721. Muxing mode                              : zlib
  722. Codec ID                                 : S_HDMV/PGS
  723. Codec ID/Info                            : Picture based subtitle format used on BDs/HD-DVDs
  724. Duration                                 : 1 h 34 min
  725. Bit rate                                 : 1 839 b/s
  726. Count of elements                        : 128
  727. Stream size                              : 1.25 MiB (0%)
  728. Title                                    : Portuguese-FORCED-PGS
  729. Language                                 : Portuguese
  730. Default                                  : No
  731. Forced                                   : No
  732. Original source medium                   : Blu-ray
  733. Text #27
  734. ID                                       : 41
  735. ID in the original source medium         : 4789 (0x12B5)
  736. Format                                   : PGS
  737. Muxing mode                              : zlib
  738. Codec ID                                 : S_HDMV/PGS
  739. Codec ID/Info                            : Picture based subtitle format used on BDs/HD-DVDs
  740. Duration                                 : 1 h 36 min
  741. Bit rate                                 : 19.0 kb/s
  742. Count of elements                        : 1564
  743. Stream size                              : 13.2 MiB (0%)
  744. Title                                    : Russian-PGS
  745. Language                                 : Russian
  746. Default                                  : No
  747. Forced                                   : No
  748. Original source medium                   : Blu-ray
  749. Text #28
  750. ID                                       : 42
  751. ID in the original source medium         : 4790 (0x12B6)
  752. Format                                   : PGS
  753. Muxing mode                              : zlib
  754. Codec ID                                 : S_HDMV/PGS
  755. Codec ID/Info                            : Picture based subtitle format used on BDs/HD-DVDs
  756. Duration                                 : 1 h 36 min
  757. Bit rate                                 : 18.0 kb/s
  758. Count of elements                        : 1564
  759. Stream size                              : 12.5 MiB (0%)
  760. Title                                    : Spanish-PGS
  761. Language                                 : Spanish
  762. Default                                  : No
  763. Forced                                   : No
  764. Original source medium                   : Blu-ray
  765. Text #29
  766. ID                                       : 43
  767. ID in the original source medium         : 4790 (0x12B6)
  768. Format                                   : PGS
  769. Muxing mode                              : zlib
  770. Codec ID                                 : S_HDMV/PGS
  771. Codec ID/Info                            : Picture based subtitle format used on BDs/HD-DVDs
  772. Duration                                 : 1 h 35 min
  773. Bit rate                                 : 3 765 b/s
  774. Count of elements                        : 300
  775. Stream size                              : 2.58 MiB (0%)
  776. Title                                    : Spanish-FORCED-PGS
  777. Language                                 : Spanish
  778. Default                                  : No
  779. Forced                                   : No
  780. Original source medium                   : Blu-ray
  781. Text #30
  782. ID                                       : 44
  783. ID in the original source medium         : 4791 (0x12B7)
  784. Format                                   : PGS
  785. Muxing mode                              : zlib
  786. Codec ID                                 : S_HDMV/PGS
  787. Codec ID/Info                            : Picture based subtitle format used on BDs/HD-DVDs
  788. Duration                                 : 1 h 31 min
  789. Bit rate                                 : 20.0 kb/s
  790. Count of elements                        : 1568
  791. Stream size                              : 13.2 MiB (0%)
  792. Title                                    : Spanish-PGS
  793. Language                                 : Spanish
  794. Default                                  : No
  795. Forced                                   : No
  796. Original source medium                   : Blu-ray
  797. Text #31
  798. ID                                       : 45
  799. ID in the original source medium         : 4791 (0x12B7)
  800. Format                                   : PGS
  801. Muxing mode                              : zlib
  802. Codec ID                                 : S_HDMV/PGS
  803. Codec ID/Info                            : Picture based subtitle format used on BDs/HD-DVDs
  804. Duration                                 : 1 h 19 min
  805. Bit rate                                 : 2 804 b/s
  806. Count of elements                        : 198
  807. Stream size                              : 1.60 MiB (0%)
  808. Title                                    : Spanish-FORCED-PGS
  809. Language                                 : Spanish
  810. Default                                  : No
  811. Forced                                   : No
  812. Original source medium                   : Blu-ray
  813. Text #32
  814. ID                                       : 46
  815. ID in the original source medium         : 4792 (0x12B8)
  816. Format                                   : PGS
  817. Muxing mode                              : zlib
  818. Codec ID                                 : S_HDMV/PGS
  819. Codec ID/Info                            : Picture based subtitle format used on BDs/HD-DVDs
  820. Duration                                 : 1 h 36 min
  821. Bit rate                                 : 15.6 kb/s
  822. Count of elements                        : 1172
  823. Stream size                              : 10.8 MiB (0%)
  824. Title                                    : Swedish-PGS
  825. Language                                 : Swedish
  826. Default                                  : No
  827. Forced                                   : No
  828. Original source medium                   : Blu-ray
  829. Text #33
  830. ID                                       : 47
  831. ID in the original source medium         : 4793 (0x12B9)
  832. Format                                   : PGS
  833. Muxing mode                              : zlib
  834. Codec ID                                 : S_HDMV/PGS
  835. Codec ID/Info                            : Picture based subtitle format used on BDs/HD-DVDs
  836. Duration                                 : 1 h 36 min
  837. Bit rate                                 : 20.5 kb/s
  838. Count of elements                        : 1554
  839. Stream size                              : 14.2 MiB (0%)
  840. Title                                    : Thai-PGS
  841. Language                                 : Thai
  842. Default                                  : No
  843. Forced                                   : No
  844. Original source medium                   : Blu-ray
  845. Text #34
  846. ID                                       : 48
  847. ID in the original source medium         : 4794 (0x12BA)
  848. Format                                   : PGS
  849. Muxing mode                              : zlib
  850. Codec ID                                 : S_HDMV/PGS
  851. Codec ID/Info                            : Picture based subtitle format used on BDs/HD-DVDs
  852. Duration                                 : 1 h 21 min
  853. Bit rate                                 : 2 389 b/s
  854. Count of elements                        : 180
  855. Stream size                              : 1.39 MiB (0%)
  856. Title                                    : French-FORCED-PGS
  857. Language                                 : French
  858. Default                                  : No
  859. Forced                                   : No
  860. Original source medium                   : Blu-ray
  861. Text #35
  862. ID                                       : 49
  863. ID in the original source medium         : 4794 (0x12BA)
  864. Format                                   : PGS
  865. Muxing mode                              : zlib
  866. Codec ID                                 : S_HDMV/PGS
  867. Codec ID/Info                            : Picture based subtitle format used on BDs/HD-DVDs
  868. Duration                                 : 1 h 21 min
  869. Bit rate                                 : 2 388 b/s
  870. Count of elements                        : 172
  871. Stream size                              : 1.39 MiB (0%)
  872. Title                                    : French-FORCED-PGS
  873. Language                                 : French
  874. Default                                  : No
  875. Forced                                   : No
  876. Original source medium                   : Blu-ray
  877. Text #36
  878. ID                                       : 50
  879. ID in the original source medium         : 4795 (0x12BB)
  880. Format                                   : PGS
  881. Muxing mode                              : zlib
  882. Codec ID                                 : S_HDMV/PGS
  883. Codec ID/Info                            : Picture based subtitle format used on BDs/HD-DVDs
  884. Duration                                 : 1 h 21 min
  885. Bit rate                                 : 1 049 b/s
  886. Count of elements                        : 94
  887. Stream size                              : 626 KiB (0%)
  888. Title                                    : Japanese-FORCED-PGS
  889. Language                                 : Japanese
  890. Default                                  : No
  891. Forced                                   : No
  892. Original source medium                   : Blu-ray
  893. Menu
  894. 00:00:00.000                             : en:Chapter 01
  895. 00:05:56.064                             : en:Chapter 02
  896. 00:14:52.057                             : en:Chapter 03
  897. 00:19:37.843                             : en:Chapter 04
  898. 00:25:21.353                             : en:Chapter 05
  899. 00:32:20.355                             : en:Chapter 06
  900. 00:39:09.972                             : en:Chapter 07
  901. 00:46:07.139                             : en:Chapter 08
  902. 00:52:21.388                             : en:Chapter 09
  903. 01:00:25.663                             : en:Chapter 10
  904. 01:04:40.126                             : en:Chapter 11
  905. 01:11:07.680                             : en:Chapter 12
  906. 01:17:11.877                             : en:Chapter 13
  907. 01:22:06.087                             : en:Chapter 14
  908. 01:26:25.763                             : en:Chapter 15
  909. 01:28:27.010                             : en:Chapter 16
复制代码



                                       
                                       

                                       
                                       
                                       




生化危机2:启迪录/恶灵古堡II:启迪录 Resident.Evil.Apocalypse.2004.EXTENDED.2160p.BluRay.REMUX.HEVC.DTS-HD.MA.TrueHD.7.1.Atmos-FGT 44.96GB

Resident.Evil.Apocalypse.2004.EXTENDED.2160p.BluRay.REMUX.HEVC.DTS-HD.MA.TrueHD..zip

113.18 KB, 下载次数: 55, 下载积分: 蓝光币 -2

回复

使用道具 举报

懒得打字嘛,点击右侧快捷回复 【右侧内容,后台自定义】
您需要登录后才可以回帖 登录 | 立即加入

本版积分规则

Archiver|小黑屋| 蓝光电影网 |网站地图

Copyright © 2021 Comsenz Inc. Powered by 蓝光电影网

蓝光电影网

本站内容由用户自主分享和转载自互联网,转载目的在于传递更多信息,并不代表本网赞同其观点和对其真实性负责。

如有侵权、违反国家法律政策行为,请联系我们,我们会第一时间及时清除和处理!

举报反馈邮箱:4k1080.com@gmail.com

快速回复 返回顶部 返回列表