找回密码

蓝光电影网

查看: 1032|回复: 0

[剧情] 泊岸/停留 Stay.2013.1080p.AMZN.WEBRip.DDP5.1.x264-monkee 6.92GB

[复制链接]
蓝光币
1704
发表于 2021-8-20 00:56:39 | 显示全部楼层 |阅读模式


◎译  名 靠岸/逗留
◎片  名 Stay
◎年  代 2013
◎产  地 加拿大,爱尔兰
◎类  别 剧情
◎语  言 英语,法语,苏格兰盖尔语
◎上映日期 2013-09-09(加拿大)
◎IMDb评分  5.6/10 from 669 users
◎IMDb链接  https://www.imdb.com/title/tt2234032/
◎豆瓣评分 /10 from 0 users
◎豆瓣链接 https://movie.douban.com/subject/24862587/
◎片  长 99分钟
◎导  演 Wiebke von Carolsfeld
◎编  剧 谢默斯·希尼 Seamus Heaney
◎主  演 泰勒·席林 Taylor Schilling
       艾丹·奎因 Aidan Quinn
       迈克尔·艾恩塞德 Michael Ironside
       布莱恩·格里森 Brian Gleeson
       Pascale Montpetit
       谢默斯·希尼 Seamus Heaney
       妮卡·麦圭根 Nika McGuigan
       巴里·基奥恩 Barry Keoghan
◎标  签 加拿大 | 爱尔兰 | TaylorSchilling | 电影 | 剧情 | 艾丹·奎因 | 泰勒·席林 | 2013
◎简  介


  A woman finds out she's pregnant and returns home when the expected father wants nothing to do with her.
◎获奖情况
  第34届加拿大吉尼奖 ?(2014)
  最好原创歌曲(提名)
  1. Video
  2. ID                                       : 1
  3. Format                                   : AVC
  4. Format/Info                              : Advanced Video Codec
  5. Format profile                           : [email protected]
  6. Format settings                          : CABAC / 4 Ref Frames
  7. Format settings, CABAC                   : Yes
  8. Format settings, Reference frames        : 4 frames
  9. Codec ID                                 : V_MPEG4/ISO/AVC
  10. Duration                                 : 1 h 39 min
  11. Bit rate mode                            : Constant
  12. Bit rate                                 : 9 365 kb/s
  13. Nominal bit rate                         : 10 000 kb/s
  14. Width                                    : 1 920 pixels
  15. Height                                   : 816 pixels
  16. Display aspect ratio                     : 2.35:1
  17. Frame rate mode                          : Constant
  18. Frame rate                               : 24.000 FPS
  19. Color space                              : YUV
  20. Chroma subsampling                       : 4:2:0
  21. Bit depth                                : 8 bits
  22. Scan type                                : Progressive
  23. Bits/(Pixel*Frame)                       : 0.249
  24. Stream size                              : 6.48 GiB (94%)
  25. Default                                  : Yes
  26. Forced                                   : No
  27. Color range                              : Limited
  28. Color primaries                          : BT.709
  29. Transfer characteristics                 : BT.709
  30. Matrix coefficients                      : BT.709
  31. Audio
  32. ID                                       : 2
  33. Format                                   : E-AC-3
  34. Format/Info                              : Enhanced AC-3
  35. Commercial name                          : Dolby Digital Plus
  36. Codec ID                                 : A_EAC3
  37. Duration                                 : 1 h 39 min
  38. Bit rate mode                            : Constant
  39. Bit rate                                 : 640 kb/s
  40. Channel(s)                               : 6 channels
  41. Channel layout                           : L R C LFE Ls Rs
  42. Sampling rate                            : 48.0 kHz
  43. Frame rate                               : 31.250 FPS (1536 SPF)
  44. Compression mode                         : Lossy
  45. Stream size                              : 453 MiB (6%)
  46. Language                                 : English
  47. Service kind                             : Complete Main
  48. Default                                  : Yes
  49. Forced                                   : No
  50. Text #1
  51. ID                                       : 3
  52. Format                                   : UTF-8
  53. Codec ID                                 : S_TEXT/UTF8
  54. Codec ID/Info                            : UTF-8 Plain Text
  55. Duration                                 : 1 h 36 min
  56. Bit rate                                 : 53 b/s
  57. Count of elements                        : 1342
  58. Stream size                              : 38.2 KiB (0%)
  59. Title                                    : English
  60. Language                                 : English
  61. Default                                  : No
  62. Forced                                   : No
  63. Text #2
  64. ID                                       : 4
  65. Format                                   : UTF-8
  66. Codec ID                                 : S_TEXT/UTF8
  67. Codec ID/Info                            : UTF-8 Plain Text
  68. Duration                                 : 1 h 36 min
  69. Bit rate                                 : 54 b/s
  70. Count of elements                        : 1342
  71. Stream size                              : 38.4 KiB (0%)
  72. Title                                    : English  SDH
  73. Language                                 : English
  74. Default                                  : No
  75. Forced                                   : No
  76. Text #3
  77. ID                                       : 5
  78. Format                                   : UTF-8
  79. Codec ID                                 : S_TEXT/UTF8
  80. Codec ID/Info                            : UTF-8 Plain Text
  81. Duration                                 : 1 h 36 min
  82. Bit rate                                 : 53 b/s
  83. Count of elements                        : 1342
  84. Stream size                              : 38.2 KiB (0%)
  85. Title                                    : English
  86. Language                                 : English
  87. Default                                  : No
  88. Forced                                   : No
复制代码




                                       
                                       

                                       
                                       
                                       




回复

使用道具 举报

懒得打字嘛,点击右侧快捷回复 【右侧内容,后台自定义】
您需要登录后才可以回帖 登录 | 立即加入

本版积分规则

Archiver|小黑屋| 蓝光电影网 |网站地图

Copyright © 2021 Comsenz Inc. Powered by 蓝光电影网

蓝光电影网

本站内容由用户自主分享和转载自互联网,转载目的在于传递更多信息,并不代表本网赞同其观点和对其真实性负责。

如有侵权、违反国家法律政策行为,请联系我们,我们会第一时间及时清除和处理!

举报反馈邮箱:4k1080.com@gmail.com

快速回复 返回顶部 返回列表