找回密码

蓝光电影网

查看: 1139|回复: 0

[UHD.HEVC] 新变种人 The.New.Mutants.2020.2160p.BluRay.REMUX.HEVC.DTS-HD.MA.TrueHD.7.1.Atmos-FGT 51.67GB

[复制链接]
蓝光币
1704
发表于 2020-11-15 10:13:39 | 显示全部楼层 |阅读模式


◎译  名 新变种人/X-Men: The New Mutants/变种人(台)/新变档人(豆友译名)/新异变人(港)
◎片  名 The New Mutants
◎年  代 2020
◎产  地 美国
◎类  别 行动 / 科幻 / 可骇
◎语  言 英语
◎上映日期 2020-08-28(美国)
◎IMDb评分  5.4/10 from 20670 users
◎IMDb链接  https://www.imdb.com/title/tt4682266/
◎豆瓣评分 4.5/10 from 7472 users
◎豆瓣链接 https://movie.douban.com/subject/26389321/
◎片  长 98分钟
◎导  演 约什·布恩 Josh Boone
◎编  剧 约什·布恩 Josh Boone / 内特·李 Knate Lee / 克里斯·克雷蒙 Chris Claremont / 莱恩·韦恩 Len Wein / 戴夫·科克勒姆 Dave Cockrum
◎主  演 麦茜·威廉姆斯 Maisie Williams
       安雅·泰勒-乔伊 Anya Taylor-Joy
       查理·希顿 Charlie Heaton
       艾莉丝·布拉加 Alice Braga
       布鲁·亨特 Blu Hunt
       亨利·扎格 Henry Zaga
       亚当·比奇 Adam Beach
       Colbi Gannett
       海皮·安德森 Happy Anderson
       玛丽莲·曼森 Marilyn Manson
◎标  签 X战警 | 科幻 | 漫威 | 美国 | X-Men | Marvel | 超级豪杰 | 漫画改编
◎简  介


  当五位具有特别才能的青少年被关入奥秘机构,有一股超自然恶势力正捋臂张拳,他们必须面临曩昔的罪行,但心里的恐惧行将成真。奥秘的背后似乎有庞大的诡计正在成形,他们能否能勇敢匹敌本身的气力,逃走这一切桎梏……
◎获奖情况
  第6届豆瓣电影年度榜单 ?(2019)
  最值得期待的外语电影(提名)
  1. Video
  2. ID                                       : 1
  3. ID in the original source medium         : 4113 (0x1011)
  4. Format                                   : HEVC
  5. Format/Info                              : High Efficiency Video Coding
  6. Format profile                           : Main [email protected]@High
  7. HDR format                               : SMPTE ST 2086, HDR10 compatible
  8. Codec ID                                 : V_MPEGH/ISO/HEVC
  9. Duration                                 : 1 h 34 min
  10. Bit rate                                 : 64.0 Mb/s
  11. Width                                    : 3 840 pixels
  12. Height                                   : 2 160 pixels
  13. Display aspect ratio                     : 16:9
  14. Frame rate mode                          : Constant
  15. Frame rate                               : 23.976 (24000/1001/189150) FPS
  16. Color space                              : YUV
  17. Chroma subsampling                       : 4:2:0 (Type 2)
  18. Bit depth                                : 10 bits
  19. Bits/(Pixel*Frame)                       : 0.322
  20. Stream size                              : 42.1 GiB (81%)
  21. Title                                    : The.New.Mutants.2020.2160p.BluRay.REMUX.HEVC.DTS-HD.MA.TrueHD.7.1.Atmos-FGT
  22. Writing library                          : ATEME Titan File 3.9.0 (4.9.0.0)        
  23. Language                                 : English
  24. Default                                  : No
  25. Forced                                   : No
  26. Color range                              : Limited
  27. Color primaries                          : BT.2020
  28. Transfer characteristics                 : PQ
  29. Matrix coefficients                      : BT.2020 non-constant
  30. Mastering display color primaries        : Display P3
  31. Mastering display luminance              : min: 0.0050 cd/m2, max: 1000 cd/m2
  32. Original source medium                   : Blu-ray
  33. Audio #1
  34. ID                                       : 2
  35. ID in the original source medium         : 4352 (0x1100)
  36. Format                                   : MLP FBA 16-ch
  37. Format/Info                              : Meridian Lossless Packing FBA with 16-channel presentation
  38. Commercial name                          : Dolby TrueHD with Dolby Atmos
  39. Codec ID                                 : A_TRUEHD
  40. Duration                                 : 1 h 34 min
  41. Bit rate mode                            : Variable
  42. Bit rate                                 : 4 125 kb/s
  43. Maximum bit rate                         : 8 931 kb/s
  44. Channel(s)                               : 8 channels
  45. Channel layout                           : L R C LFE Ls Rs Lb Rb
  46. Sampling rate                            : 48.0 kHz
  47. Frame rate                               : 1 200.000 FPS (40 SPF)
  48. Compression mode                         : Lossless
  49. Stream size                              : 2.71 GiB (5%)
  50. Title                                    : The.New.Mutants.2020.2160p.BluRay.REMUX.HEVC.DTS-HD.MA.TrueHD.7.1.Atmos-FGT
  51. Language                                 : English
  52. Default                                  : Yes
  53. Forced                                   : No
  54. Original source medium                   : Blu-ray
  55. Number of dynamic objects                : 13
  56. Bed channel count                        : 1 channel
  57. Bed channel configuration                : LFE
  58. Audio #2
  59. ID                                       : 3
  60. Format                                   : DTS XLL
  61. Format/Info                              : Digital Theater Systems
  62. Commercial name                          : DTS-HD Master Audio
  63. Codec ID                                 : A_DTS
  64. Duration                                 : 1 h 34 min
  65. Bit rate mode                            : Variable
  66. Bit rate                                 : 3 981 kb/s
  67. Channel(s)                               : 8 channels
  68. Channel layout                           : C L R LFE Lb Rb Lss Rss
  69. Sampling rate                            : 48.0 kHz
  70. Frame rate                               : 93.750 FPS (512 SPF)
  71. Bit depth                                : 24 bits
  72. Compression mode                         : Lossless
  73. Stream size                              : 2.62 GiB (5%)
  74. Title                                    : The.New.Mutants.2020.2160p.BluRay.REMUX.HEVC.DTS-HD.MA.TrueHD.7.1.Atmos-FGT
  75. Language                                 : English
  76. Default                                  : No
  77. Forced                                   : No
  78. Audio #3
  79. ID                                       : 4
  80. ID in the original source medium         : 4352 (0x1100)
  81. Format                                   : AC-3
  82. Format/Info                              : Audio Coding 3
  83. Commercial name                          : Dolby Digital
  84. Codec ID                                 : A_AC3
  85. Duration                                 : 1 h 34 min
  86. Bit rate mode                            : Constant
  87. Bit rate                                 : 640 kb/s
  88. Channel(s)                               : 6 channels
  89. Channel layout                           : L R C LFE Ls Rs
  90. Sampling rate                            : 48.0 kHz
  91. Frame rate                               : 31.250 FPS (1536 SPF)
  92. Compression mode                         : Lossy
  93. Stream size                              : 431 MiB (1%)
  94. Title                                    : The.New.Mutants.2020.2160p.BluRay.REMUX.HEVC.DTS-HD.MA.TrueHD.7.1.Atmos-FGT
  95. Language                                 : English
  96. Service kind                             : Complete Main
  97. Default                                  : No
  98. Forced                                   : No
  99. Original source medium                   : Blu-ray
  100. Audio #4
  101. ID                                       : 5
  102. ID in the original source medium         : 4353 (0x1101)
  103. Format                                   : AC-3
  104. Format/Info                              : Audio Coding 3
  105. Commercial name                          : Dolby Digital
  106. Codec ID                                 : A_AC3
  107. Duration                                 : 1 h 34 min
  108. Bit rate mode                            : Constant
  109. Bit rate                                 : 320 kb/s
  110. Channel(s)                               : 2 channels
  111. Channel layout                           : L R
  112. Sampling rate                            : 48.0 kHz
  113. Frame rate                               : 31.250 FPS (1536 SPF)
  114. Compression mode                         : Lossy
  115. Stream size                              : 215 MiB (0%)
  116. Title                                    : The.New.Mutants.2020.2160p.BluRay.REMUX.HEVC.DTS-HD.MA.TrueHD.7.1.Atmos-FGT
  117. Language                                 : English
  118. Service kind                             : Complete Main
  119. Default                                  : No
  120. Forced                                   : No
  121. Original source medium                   : Blu-ray
  122. Audio #5
  123. ID                                       : 6
  124. Format                                   : E-AC-3
  125. Format/Info                              : Enhanced AC-3
  126. Commercial name                          : Dolby Digital Plus
  127. Format profile                           : Blu-ray Disc
  128. Codec ID                                 : A_EAC3
  129. Duration                                 : 1 h 34 min
  130. Bit rate mode                            : Constant
  131. Bit rate                                 : 1 024 kb/s
  132. Channel(s)                               : 8 channels
  133. Channel layout                           : L R C LFE Ls Rs Lb Rb
  134. Sampling rate                            : 48.0 kHz
  135. Frame rate                               : 31.250 FPS (1536 SPF)
  136. Compression mode                         : Lossy
  137. Stream size                              : 689 MiB (1%)
  138. Title                                    : The.New.Mutants.2020.2160p.BluRay.REMUX.HEVC.DTS-HD.MA.TrueHD.7.1.Atmos-FGT
  139. Language                                 : French
  140. Service kind                             : Complete Main
  141. Default                                  : No
  142. Forced                                   : No
  143. Audio #6
  144. ID                                       : 7
  145. ID in the original source medium         : 4354 (0x1102)
  146. Format                                   : AC-3
  147. Format/Info                              : Audio Coding 3
  148. Commercial name                          : Dolby Digital
  149. Codec ID                                 : A_AC3
  150. Duration                                 : 1 h 34 min
  151. Bit rate mode                            : Constant
  152. Bit rate                                 : 576 kb/s
  153. Channel(s)                               : 6 channels
  154. Channel layout                           : L R C LFE Ls Rs
  155. Sampling rate                            : 48.0 kHz
  156. Frame rate                               : 31.250 FPS (1536 SPF)
  157. Compression mode                         : Lossy
  158. Stream size                              : 388 MiB (1%)
  159. Title                                    : The.New.Mutants.2020.2160p.BluRay.REMUX.HEVC.DTS-HD.MA.TrueHD.7.1.Atmos-FGT
  160. Language                                 : French
  161. Service kind                             : Complete Main
  162. Default                                  : No
  163. Forced                                   : No
  164. Original source medium                   : Blu-ray
  165. Audio #7
  166. ID                                       : 8
  167. ID in the original source medium         : 4355 (0x1103)
  168. Format                                   : AC-3
  169. Format/Info                              : Audio Coding 3
  170. Commercial name                          : Dolby Digital
  171. Codec ID                                 : A_AC3
  172. Duration                                 : 1 h 34 min
  173. Bit rate mode                            : Constant
  174. Bit rate                                 : 640 kb/s
  175. Channel(s)                               : 6 channels
  176. Channel layout                           : L R C LFE Ls Rs
  177. Sampling rate                            : 48.0 kHz
  178. Frame rate                               : 31.250 FPS (1536 SPF)
  179. Compression mode                         : Lossy
  180. Stream size                              : 431 MiB (1%)
  181. Title                                    : The.New.Mutants.2020.2160p.BluRay.REMUX.HEVC.DTS-HD.MA.TrueHD.7.1.Atmos-FGT
  182. Language                                 : French
  183. Service kind                             : Complete Main
  184. Default                                  : No
  185. Forced                                   : No
  186. Original source medium                   : Blu-ray
  187. Audio #8
  188. ID                                       : 9
  189. Format                                   : E-AC-3
  190. Format/Info                              : Enhanced AC-3
  191. Commercial name                          : Dolby Digital Plus
  192. Format profile                           : Blu-ray Disc
  193. Codec ID                                 : A_EAC3
  194. Duration                                 : 1 h 34 min
  195. Bit rate mode                            : Constant
  196. Bit rate                                 : 1 024 kb/s
  197. Channel(s)                               : 8 channels
  198. Channel layout                           : L R C LFE Ls Rs Lb Rb
  199. Sampling rate                            : 48.0 kHz
  200. Frame rate                               : 31.250 FPS (1536 SPF)
  201. Compression mode                         : Lossy
  202. Stream size                              : 689 MiB (1%)
  203. Title                                    : The.New.Mutants.2020.2160p.BluRay.REMUX.HEVC.DTS-HD.MA.TrueHD.7.1.Atmos-FGT
  204. Language                                 : Spanish
  205. Service kind                             : Complete Main
  206. Default                                  : No
  207. Forced                                   : No
  208. Audio #9
  209. ID                                       : 10
  210. ID in the original source medium         : 4356 (0x1104)
  211. Format                                   : AC-3
  212. Format/Info                              : Audio Coding 3
  213. Commercial name                          : Dolby Digital
  214. Codec ID                                 : A_AC3
  215. Duration                                 : 1 h 34 min
  216. Bit rate mode                            : Constant
  217. Bit rate                                 : 576 kb/s
  218. Channel(s)                               : 6 channels
  219. Channel layout                           : L R C LFE Ls Rs
  220. Sampling rate                            : 48.0 kHz
  221. Frame rate                               : 31.250 FPS (1536 SPF)
  222. Compression mode                         : Lossy
  223. Stream size                              : 388 MiB (1%)
  224. Title                                    : The.New.Mutants.2020.2160p.BluRay.REMUX.HEVC.DTS-HD.MA.TrueHD.7.1.Atmos-FGT
  225. Language                                 : Spanish
  226. Service kind                             : Complete Main
  227. Default                                  : No
  228. Forced                                   : No
  229. Original source medium                   : Blu-ray
  230. Audio #10
  231. ID                                       : 11
  232. Format                                   : E-AC-3
  233. Format/Info                              : Enhanced AC-3
  234. Commercial name                          : Dolby Digital Plus
  235. Format profile                           : Blu-ray Disc
  236. Codec ID                                 : A_EAC3
  237. Duration                                 : 1 h 34 min
  238. Bit rate mode                            : Constant
  239. Bit rate                                 : 1 024 kb/s
  240. Channel(s)                               : 8 channels
  241. Channel layout                           : L R C LFE Ls Rs Lb Rb
  242. Sampling rate                            : 48.0 kHz
  243. Frame rate                               : 31.250 FPS (1536 SPF)
  244. Compression mode                         : Lossy
  245. Stream size                              : 689 MiB (1%)
  246. Title                                    : The.New.Mutants.2020.2160p.BluRay.REMUX.HEVC.DTS-HD.MA.TrueHD.7.1.Atmos-FGT
  247. Language                                 : German
  248. Service kind                             : Complete Main
  249. Default                                  : No
  250. Forced                                   : No
  251. Audio #11
  252. ID                                       : 12
  253. ID in the original source medium         : 4357 (0x1105)
  254. Format                                   : AC-3
  255. Format/Info                              : Audio Coding 3
  256. Commercial name                          : Dolby Digital
  257. Codec ID                                 : A_AC3
  258. Duration                                 : 1 h 34 min
  259. Bit rate mode                            : Constant
  260. Bit rate                                 : 576 kb/s
  261. Channel(s)                               : 6 channels
  262. Channel layout                           : L R C LFE Ls Rs
  263. Sampling rate                            : 48.0 kHz
  264. Frame rate                               : 31.250 FPS (1536 SPF)
  265. Compression mode                         : Lossy
  266. Stream size                              : 388 MiB (1%)
  267. Title                                    : The.New.Mutants.2020.2160p.BluRay.REMUX.HEVC.DTS-HD.MA.TrueHD.7.1.Atmos-FGT
  268. Language                                 : German
  269. Service kind                             : Complete Main
  270. Default                                  : No
  271. Forced                                   : No
  272. Original source medium                   : Blu-ray
  273. Text #1
  274. ID                                       : 13
  275. Format                                   : UTF-8
  276. Codec ID                                 : S_TEXT/UTF8
  277. Codec ID/Info                            : UTF-8 Plain Text
  278. Duration                                 : 1 h 26 min
  279. Bit rate                                 : 39 b/s
  280. Count of elements                        : 1029
  281. Stream size                              : 25.1 KiB (0%)
  282. Title                                    : English-SRT
  283. Language                                 : English
  284. Default                                  : Yes
  285. Forced                                   : No
  286. Text #2
  287. ID                                       : 14
  288. ID in the original source medium         : 4768 (0x12A0)
  289. Format                                   : PGS
  290. Muxing mode                              : zlib
  291. Codec ID                                 : S_HDMV/PGS
  292. Codec ID/Info                            : Picture based subtitle format used on BDs/HD-DVDs
  293. Duration                                 : 1 h 26 min
  294. Bit rate                                 : 34.6 kb/s
  295. Count of elements                        : 2686
  296. Stream size                              : 21.3 MiB (0%)
  297. Title                                    : English-PGS
  298. Language                                 : English
  299. Default                                  : No
  300. Forced                                   : No
  301. Original source medium                   : Blu-ray
  302. Text #3
  303. ID                                       : 15
  304. ID in the original source medium         : 4769 (0x12A1)
  305. Format                                   : PGS
  306. Muxing mode                              : zlib
  307. Codec ID                                 : S_HDMV/PGS
  308. Codec ID/Info                            : Picture based subtitle format used on BDs/HD-DVDs
  309. Duration                                 : 1 h 33 min
  310. Bit rate                                 : 21.1 kb/s
  311. Count of elements                        : 1846
  312. Stream size                              : 14.1 MiB (0%)
  313. Title                                    : French-PGS
  314. Language                                 : French
  315. Default                                  : No
  316. Forced                                   : No
  317. Original source medium                   : Blu-ray
  318. Text #4
  319. ID                                       : 16
  320. ID in the original source medium         : 4770 (0x12A2)
  321. Format                                   : PGS
  322. Muxing mode                              : zlib
  323. Codec ID                                 : S_HDMV/PGS
  324. Codec ID/Info                            : Picture based subtitle format used on BDs/HD-DVDs
  325. Duration                                 : 1 h 33 min
  326. Bit rate                                 : 25.2 kb/s
  327. Count of elements                        : 2020
  328. Stream size                              : 16.8 MiB (0%)
  329. Title                                    : French-PGS
  330. Language                                 : French
  331. Default                                  : No
  332. Forced                                   : No
  333. Original source medium                   : Blu-ray
  334. Text #5
  335. ID                                       : 17
  336. ID in the original source medium         : 4771 (0x12A3)
  337. Format                                   : PGS
  338. Muxing mode                              : zlib
  339. Codec ID                                 : S_HDMV/PGS
  340. Codec ID/Info                            : Picture based subtitle format used on BDs/HD-DVDs
  341. Duration                                 : 1 h 26 min
  342. Bit rate                                 : 26.5 kb/s
  343. Count of elements                        : 1980
  344. Stream size                              : 16.3 MiB (0%)
  345. Title                                    : Spanish-PGS
  346. Language                                 : Spanish
  347. Default                                  : No
  348. Forced                                   : No
  349. Original source medium                   : Blu-ray
  350. Text #6
  351. ID                                       : 18
  352. ID in the original source medium         : 4772 (0x12A4)
  353. Format                                   : PGS
  354. Muxing mode                              : zlib
  355. Codec ID                                 : S_HDMV/PGS
  356. Codec ID/Info                            : Picture based subtitle format used on BDs/HD-DVDs
  357. Duration                                 : 1 h 33 min
  358. Bit rate                                 : 23.4 kb/s
  359. Count of elements                        : 1918
  360. Stream size                              : 15.6 MiB (0%)
  361. Title                                    : German-PGS
  362. Language                                 : German
  363. Default                                  : No
  364. Forced                                   : No
  365. Original source medium                   : Blu-ray
  366. Text #7
  367. ID                                       : 19
  368. ID in the original source medium         : 4773 (0x12A5)
  369. Format                                   : PGS
  370. Muxing mode                              : zlib
  371. Codec ID                                 : S_HDMV/PGS
  372. Codec ID/Info                            : Picture based subtitle format used on BDs/HD-DVDs
  373. Duration                                 : 1 h 12 min
  374. Bit rate                                 : 814 b/s
  375. Count of elements                        : 42
  376. Stream size                              : 436 KiB (0%)
  377. Title                                    : French-FORCED-PGS
  378. Language                                 : French
  379. Default                                  : No
  380. Forced                                   : No
  381. Original source medium                   : Blu-ray
  382. Text #8
  383. ID                                       : 20
  384. ID in the original source medium         : 4774 (0x12A6)
  385. Format                                   : PGS
  386. Muxing mode                              : zlib
  387. Codec ID                                 : S_HDMV/PGS
  388. Codec ID/Info                            : Picture based subtitle format used on BDs/HD-DVDs
  389. Duration                                 : 1 h 27 min
  390. Bit rate                                 : 970 b/s
  391. Count of elements                        : 70
  392. Stream size                              : 625 KiB (0%)
  393. Title                                    : French-FORCED-PGS
  394. Language                                 : French
  395. Default                                  : No
  396. Forced                                   : No
  397. Original source medium                   : Blu-ray
  398. Text #9
  399. ID                                       : 21
  400. ID in the original source medium         : 4775 (0x12A7)
  401. Format                                   : PGS
  402. Muxing mode                              : zlib
  403. Codec ID                                 : S_HDMV/PGS
  404. Codec ID/Info                            : Picture based subtitle format used on BDs/HD-DVDs
  405. Duration                                 : 1 h 12 min
  406. Bit rate                                 : 834 b/s
  407. Count of elements                        : 38
  408. Stream size                              : 446 KiB (0%)
  409. Title                                    : Spanish-FORCED-PGS
  410. Language                                 : Spanish
  411. Default                                  : No
  412. Forced                                   : No
  413. Original source medium                   : Blu-ray
  414. Text #10
  415. ID                                       : 22
  416. ID in the original source medium         : 4776 (0x12A8)
  417. Format                                   : PGS
  418. Muxing mode                              : zlib
  419. Codec ID                                 : S_HDMV/PGS
  420. Codec ID/Info                            : Picture based subtitle format used on BDs/HD-DVDs
  421. Duration                                 : 8 s 321 ms
  422. Bit rate                                 : 43.2 kb/s
  423. Count of elements                        : 4
  424. Stream size                              : 43.8 KiB (0%)
  425. Title                                    : German-FORCED-PGS
  426. Language                                 : German
  427. Default                                  : No
  428. Forced                                   : No
  429. Original source medium                   : Blu-ray
  430. Menu
  431. 00:00:00.000                             : en:Chapter 01
  432. 00:02:39.951                             : en:Chapter 02
  433. 00:08:07.737                             : en:Chapter 03
  434. 00:10:53.694                             : en:Chapter 04
  435. 00:14:33.038                             : en:Chapter 05
  436. 00:17:23.917                             : en:Chapter 06
  437. 00:19:53.066                             : en:Chapter 07
  438. 00:23:41.795                             : en:Chapter 08
  439. 00:27:54.589                             : en:Chapter 09
  440. 00:30:30.078                             : en:Chapter 10
  441. 00:33:26.587                             : en:Chapter 11
  442. 00:39:36.540                             : en:Chapter 12
  443. 00:43:12.965                             : en:Chapter 13
  444. 00:47:53.078                             : en:Chapter 14
  445. 00:50:35.032                             : en:Chapter 15
  446. 00:52:12.254                             : en:Chapter 16
  447. 00:55:28.825                             : en:Chapter 17
  448. 00:57:13.054                             : en:Chapter 18
  449. 01:00:17.113                             : en:Chapter 19
  450. 01:02:37.754                             : en:Chapter 20
  451. 01:06:36.242                             : en:Chapter 21
  452. 01:11:12.101                             : en:Chapter 22
  453. 01:13:44.336                             : en:Chapter 23
  454. 01:15:07.878                             : en:Chapter 24
  455. 01:18:56.898                             : en:Chapter 25
  456. 01:21:52.365                             : en:Chapter 26
  457. 01:24:32.067                             : en:Chapter 27
  458. 01:26:46.201                             : en:Chapter 28
复制代码



                                       
                                       

                                       
                                       
                                       




回复

使用道具 举报

懒得打字嘛,点击右侧快捷回复 【右侧内容,后台自定义】
您需要登录后才可以回帖 登录 | 立即加入

本版积分规则

Archiver|小黑屋| 蓝光电影网 |网站地图

Copyright © 2021 Comsenz Inc. Powered by 蓝光电影网

蓝光电影网

本站内容由用户自主分享和转载自互联网,转载目的在于传递更多信息,并不代表本网赞同其观点和对其真实性负责。

如有侵权、违反国家法律政策行为,请联系我们,我们会第一时间及时清除和处理!

举报反馈邮箱:4k1080.com@gmail.com

快速回复 返回顶部 返回列表