找回密码

查看: 1377|回复: 0

[UHD.HEVC] 看门人/夺命守门人 The.Doorman.2020.2160p.BluRay.REMUX.HEVC.SDR.DTS-HD.MA.5.1-FGT 48.80GB

[复制链接]
蓝光币
2027
发表于 2020-11-30 11:55:33 | 显示全部楼层 |阅读模式


◎译  名 看门人/夺命守门人(台)
◎片  名 The Doorman
◎年  代 2020
◎产  地 美国
◎类  别 行动 / 惊悚
◎语  言 英语
◎上映日期 2020-10-09(美国)
◎IMDb评分  4.4/10 from 2133 users
◎IMDb链接  https://www.imdb.com/title/tt6222118/
◎豆瓣评分 4.8/10 from 900 users
◎豆瓣链接 https://movie.douban.com/subject/27190023/
◎导  演 北村龙平 Ry?hei Kitamura
◎主  演 鲁比·罗丝 Ruby Rose
       让·雷诺 Jean Reno
       阿卡塞尔·亨涅 Aksel Hennie
       鲁珀特·伊文斯 Rupert Evans
       朱利安·费德 Julian Feder
       大卫·樱井 David Sakurai
       路易·曼迪勒 Louis Mandylor
       伊藤英明 Hideaki Ito
       Philip Whitchurch
       安德烈娅·瓦西里 Andreea Vasile
       Raynor van de Water
       丹·凯德 Dan Cade
◎标  签 行动 | 犯罪 | 2020 | 让·雷诺 | 美国 | 美国电影 | Ruby | 惊悚
◎简  介


  故事报告一位水兵陆战队军官在退役时代遭到心理创伤,她返国寻觅机遇治疗。她在纽约的一座历史悠久、迷宫一样的公寓大楼当看门人,发现雇佣兵们成心摧毁一切,以便寻觅公寓中的珍宝。
  1. Video
  2. ID                                       : 1
  3. ID in the original source medium         : 4113 (0x1011)
  4. Format                                   : HEVC
  5. Format/Info                              : High Efficiency Video Coding
  6. Format profile                           : Main [email protected]@High
  7. Codec ID                                 : V_MPEGH/ISO/HEVC
  8. Duration                                 : 1 h 36 min
  9. Bit rate                                 : 65.3 Mb/s
  10. Width                                    : 3 840 pixels
  11. Height                                   : 2 160 pixels
  12. Display aspect ratio                     : 16:9
  13. Frame rate mode                          : Constant
  14. Frame rate                               : 23.976 (24000/1001/189150) FPS
  15. Color space                              : YUV
  16. Chroma subsampling                       : 4:2:0
  17. Bit depth                                : 10 bits
  18. Bits/(Pixel*Frame)                       : 0.328
  19. Stream size                              : 44.2 GiB (91%)
  20. Title                                    : The.Doorman.2020.2160p.BluRay.REMUX.HEVC.SDR.DTS-HD.MA.5.1-FGT
  21. Language                                 : English
  22. Default                                  : No
  23. Forced                                   : No
  24. Color range                              : Limited
  25. Color primaries                          : BT.709
  26. Transfer characteristics                 : BT.709
  27. Matrix coefficients                      : BT.709
  28. Original source medium                   : Blu-ray
  29. Audio #1
  30. ID                                       : 2
  31. ID in the original source medium         : 4353 (0x1101)
  32. Format                                   : DTS XLL
  33. Format/Info                              : Digital Theater Systems
  34. Commercial name                          : DTS-HD Master Audio
  35. Codec ID                                 : A_DTS
  36. Duration                                 : 1 h 36 min
  37. Bit rate mode                            : Variable
  38. Bit rate                                 : 3 386 kb/s
  39. Channel(s)                               : 6 channels
  40. Channel layout                           : C L R Ls Rs LFE
  41. Sampling rate                            : 48.0 kHz
  42. Frame rate                               : 93.750 FPS (512 SPF)
  43. Bit depth                                : 24 bits
  44. Compression mode                         : Lossless
  45. Stream size                              : 2.29 GiB (5%)
  46. Title                                    : The.Doorman.2020.2160p.BluRay.REMUX.HEVC.SDR.DTS-HD.MA.5.1-FGT
  47. Language                                 : English
  48. Default                                  : Yes
  49. Forced                                   : No
  50. Original source medium                   : Blu-ray
  51. Audio #2
  52. ID                                       : 3
  53. ID in the original source medium         : 4352 (0x1100)
  54. Format                                   : DTS XLL
  55. Format/Info                              : Digital Theater Systems
  56. Commercial name                          : DTS-HD Master Audio
  57. Codec ID                                 : A_DTS
  58. Duration                                 : 1 h 36 min
  59. Bit rate mode                            : Variable
  60. Bit rate                                 : 3 384 kb/s
  61. Channel(s)                               : 6 channels
  62. Channel layout                           : C L R Ls Rs LFE
  63. Sampling rate                            : 48.0 kHz
  64. Frame rate                               : 93.750 FPS (512 SPF)
  65. Bit depth                                : 24 bits
  66. Compression mode                         : Lossless
  67. Stream size                              : 2.29 GiB (5%)
  68. Title                                    : The.Doorman.2020.2160p.BluRay.REMUX.HEVC.SDR.DTS-HD.MA.5.1-FGT
  69. Language                                 : German
  70. Default                                  : No
  71. Forced                                   : No
  72. Original source medium                   : Blu-ray
  73. Text #1
  74. ID                                       : 4
  75. Format                                   : UTF-8
  76. Codec ID                                 : S_TEXT/UTF8
  77. Codec ID/Info                            : UTF-8 Plain Text
  78. Duration                                 : 1 h 0 min
  79. Bit rate                                 : 0 b/s
  80. Count of elements                        : 14
  81. Stream size                              : 339 Bytes (0%)
  82. Title                                    : English-FORCED-SRT
  83. Language                                 : English
  84. Default                                  : Yes
  85. Forced                                   : Yes
  86. Text #2
  87. ID                                       : 5
  88. Format                                   : UTF-8
  89. Codec ID                                 : S_TEXT/UTF8
  90. Codec ID/Info                            : UTF-8 Plain Text
  91. Duration                                 : 1 h 30 min
  92. Bit rate                                 : 48 b/s
  93. Count of elements                        : 1069
  94. Stream size                              : 32.0 KiB (0%)
  95. Title                                    : English-SRT
  96. Language                                 : English
  97. Default                                  : No
  98. Forced                                   : No
  99. Text #3
  100. ID                                       : 6
  101. ID in the original source medium         : 4608 (0x1200)
  102. Format                                   : PGS
  103. Muxing mode                              : zlib
  104. Codec ID                                 : S_HDMV/PGS
  105. Codec ID/Info                            : Picture based subtitle format used on BDs/HD-DVDs
  106. Duration                                 : 1 h 31 min
  107. Bit rate                                 : 36.8 kb/s
  108. Count of elements                        : 1924
  109. Stream size                              : 24.1 MiB (0%)
  110. Title                                    : German-PGS
  111. Language                                 : German
  112. Default                                  : No
  113. Forced                                   : No
  114. Original source medium                   : Blu-ray
  115. Text #4
  116. ID                                       : 7
  117. ID in the original source medium         : 4609 (0x1201)
  118. Format                                   : PGS
  119. Muxing mode                              : zlib
  120. Codec ID                                 : S_HDMV/PGS
  121. Codec ID/Info                            : Picture based subtitle format used on BDs/HD-DVDs
  122. Duration                                 : 1 h 31 min
  123. Bit rate                                 : 31.5 kb/s
  124. Count of elements                        : 1921
  125. Stream size                              : 20.5 MiB (0%)
  126. Title                                    : Dutch-PGS
  127. Language                                 : Dutch
  128. Default                                  : No
  129. Forced                                   : No
  130. Original source medium                   : Blu-ray
  131. Text #5
  132. ID                                       : 8
  133. ID in the original source medium         : 4610 (0x1202)
  134. Format                                   : PGS
  135. Muxing mode                              : zlib
  136. Codec ID                                 : S_HDMV/PGS
  137. Codec ID/Info                            : Picture based subtitle format used on BDs/HD-DVDs
  138. Duration                                 : 1 h 31 min
  139. Bit rate                                 : 655 b/s
  140. Count of elements                        : 48
  141. Stream size                              : 440 KiB (0%)
  142. Title                                    : German-FORCED-PGS
  143. Language                                 : German
  144. Default                                  : No
  145. Forced                                   : No
  146. Original source medium                   : Blu-ray
  147. Text #6
  148. ID                                       : 9
  149. ID in the original source medium         : 4611 (0x1203)
  150. Format                                   : PGS
  151. Muxing mode                              : zlib
  152. Codec ID                                 : S_HDMV/PGS
  153. Codec ID/Info                            : Picture based subtitle format used on BDs/HD-DVDs
  154. Duration                                 : 1 h 0 min
  155. Bit rate                                 : 654 b/s
  156. Count of elements                        : 30
  157. Stream size                              : 289 KiB (0%)
  158. Title                                    : English-FORCED-PGS
  159. Language                                 : English
  160. Default                                  : No
  161. Forced                                   : No
  162. Original source medium                   : Blu-ray
  163. Menu
  164. 00:00:00.000                             : en:Chapter 01
  165. 00:06:21.089                             : en:Chapter 02
  166. 00:15:04.028                             : en:Chapter 03
  167. 00:24:15.245                             : en:Chapter 04
  168. 00:33:02.021                             : en:Chapter 05
  169. 00:42:19.119                             : en:Chapter 06
  170. 00:51:43.433                             : en:Chapter 07
  171. 00:59:06.334                             : en:Chapter 08
  172. 01:07:56.363                             : en:Chapter 09
  173. 01:16:41.305                             : en:Chapter 10
  174. 01:24:16.843                             : en:Chapter 11
  175. 01:29:32.950                             : en:Chapter 12
复制代码



                                       
                                       

                                       
                                       
                                       




回复

使用道具 举报

懒得打字嘛,点击右侧快捷回复 【右侧内容,后台自定义】
您需要登录后才可以回帖 登录 | 立即加入

本版积分规则

Archiver| |网站地图

Copyright © 2024 Comsenz Inc. Powered by 蓝光电影网

本站内容由用户自主分享和转载自互联网,转载目的在于传递更多信息,并不代表本网赞同其观点和对其真实性负责。

如有侵权、违反国家法律政策行为,请联系我们,我们会第一时间及时清除和处理!

举报反馈邮箱:4k1080.com@gmail.com

快速回复 返回顶部 返回列表